Jump to content

Dobrodošli na Balkandownload.org
Tražite domaće knjige, exyu magazine, sinhronizirane crtane filmove, PC i ostale igre, strane i domaće filmove, dokumentarce, stranu i domaću muziku, itd. ? Ne morate tražiti dalje jer sve ćete to naći kod nas, uredno postavljeno i spremno za download. Osim toga registracijom možete sudjelovati u raznim postojećim temama na forumu, otvarati nove teme, sudjelovati u chatu i još mnogo toga. Ako već imaš otvoren račun, logiraj se ovde ,a ako želiš saznati zašto smo najbolji otvori novi račun i uverite se sami :)
Photo

Besa (2009)


2 replies to this topic

#1
dragana5

dragana5

    Bronze Member

  • Members
  • PipPipPipPip
  • 1,395 posts
  • 169 thanks
Besa (2009) DVDRip

Besa.jpg
 
 

Reditelj: Srdjan Karanovic
Scenario: Srdjan Karanovic
Producenti: Jelena Mitrovic, Srdjan Golubovic
Zanr: Drama
Godina: 2009

Uloge: Iva Kranjc, Miki Manojlovic, Radivoje Bukvic, Nebojsa Dugalic, Ana Kostovska, Radivoj Knezevic

Opis: Na samom pocetku prvog srpskog rata Filip, Srbin, direktor gimnazije u srpskoj provinciji
dobija poziv da hitno dodje u Beograd po ratni raspored. Svoju suprugu Leu, mladu i zgodnu Slovenku
nastavnicu ritmike i plesa koju je upoznao na studijama u zapadnoj Evropi nema kome da ostavi.
Azem nepismeni i patrijarhalni Albanac, skolski posluzitelj, Filipu daje Besu da ce cuvati Leu i
da joj se nista nece dogoditi. Neocekivana i nedozvoljena Ljubav izmedju Hriscanke i Muslimana
preti da dovede u pitanje zadatu rec po zenu Zivota.


:down:
 
Upload Uskoro
Kroz zivot prolazim kao kroz samoposlugu: za sta god da se uhvatim - to i platim.

Thanked by 50 Members:
peradj , suhoj27 , zizizeta , mikyzivotic , akkovacevic , sibiibis , DACK , miko70 , joska12 , planb , vajtaun , 011gogo , ajnas , okmaxa , zagortnt , sanjinm , alexahf , stribag , Rand , bmarko011 , vladimir85X , Dordt , mikanor , draguljce86 , Radpg , dobagan rogić , miljevic , gocearizankoski , DenisMTO , batopg , nednetwork , kompart , Stefan3 , godsmack , qsaaaaaaaaaaaaaa , gabrielapetkovic , seisgk , labud1964 , stefanovicmilan , gaber , GRT7 , mrmotija , slop , dejansm , gospavina , Vladaj1972 , sarki80 , atilaF , alkoholicar , nikolabns

#2
Wolf 13

Wolf 13

    Advanced Member

  • Members
  • PipPipPip
  • 426 posts
  • 33309 thanks
Besa (2009) DVDrip AC3 5.1 x264 by Wolf
(MKV) HQ
 
hG6h87W.jpg
 

Please Login or Register to see this Hidden Content

 

General
Unique ID                   : 42475730630772367605817753753963197085 (0x1FF487350B87B007BCE12896956BF29D)
Complete name               : Besa (2009) DVDrip AC3 5.1 x264 by Wolf.mkv
Format                      : Matroska
Format version              : Version 4
File size                   : 1.27 GiB
Duration                    : 1 h 43 min
Overall bit rate            : 1 758 kb/s
Encoded date                : UTC 2018-12-17 16:55:20 / UTC 2018-12-17T13:47:39Z
Writing application         : mkvmerge v29.0.0 ('Like It Or Not') 64-bit
Writing library             : libebml v1.3.6 + libmatroska v1.4.9 / Lavf57.7.2
 
Video
ID                          : 1
Format                      : AVC
Format/Info                 : Advanced Video Codec
Format profile              : [email protected]
Format settings             : CABAC / 8 Ref Frames
Format settings, CABAC      : Yes
Format settings, ReFrames   : 8 frames
Codec ID                    : V_MPEG4/ISO/AVC
Duration                    : 1 h 43 min
Bit rate                    : 1 500 kb/s
Width                       : 720 pixels
Height                      : 566 pixels
Display aspect ratio        : 16:9
Frame rate mode             : Constant
Frame rate                  : 25.000 FPS
Color space                 : YUV
Chroma subsampling          : 4:2:0
Bit depth                   : 8 bits
Scan type                   : Progressive
Bits/(Pixel*Frame)          : 0.147
Stream size                 : 1.06 GiB (83%)
Title                       : Besa (2009)
Writing library             : x264 core 155 r2901 7d0ff22
Encoding settings           : cabac=1 / ref=8 / deblock=1:-1:-1 / analyse=0x3:0x133 / me=umh / subme=9 / psy=1 / psy_rd=1.00:0.15 / mixed_ref=1 / me_range=16 / chroma_me=1 / trellis=2 / 8x8dct=1 / cqm=0 / deadzone=21,11 / fast_pskip=1 / chroma_qp_offset=-3 / threads=6 / lookahead_threads=1 / sliced_threads=0 / nr=0 / decimate=1 / interlaced=0 / bluray_compat=0 / constrained_intra=0 / bframes=3 / b_pyramid=2 / b_adapt=2 / b_bias=0 / direct=3 / weightb=1 / open_gop=0 / weightp=2 / keyint=250 / keyint_min=25 / scenecut=40 / intra_refresh=0 / rc_lookahead=60 / rc=2pass / mbtree=1 / bitrate=1500 / ratetol=1.0 / qcomp=0.60 / qpmin=0 / qpmax=69 / qpstep=4 / cplxblur=20.0 / qblur=0.5 / vbv_maxrate=300000 / vbv_bufsize=300000 / nal_hrd=none / filler=0 / ip_ratio=1.40 / aq=1:1.00
Language                    : Serbian
Default                     : Yes
Forced                      : No
Color range                 : Limited
Color primaries             : BT.601 PAL
Transfer characteristics    : BT.709
Matrix coefficients         : BT.601
Statistics Tags Issue       : mkvmerge v29.0.0 ('Like It Or Not') 64-bit 2018-12-17 16:55:20 / mkvmerge v29.0.0 ('Like It Or Not') 64-bit 2018-12-17 16:55:20 / UTC 2018-12-17T13:47:39Z
FromStats_BitRate           : 1499929
FromStats_Duration          : 01:43:50.320000000
FromStats_FrameCount        : 155758
FromStats_StreamSize        : 1168129956
 
Audio
ID                          : 2
Format                      : AC-3
Format/Info                 : Audio Coding 3
Commercial name             : Dolby Digital
Codec ID                    : A_AC3
Duration                    : 1 h 43 min
Bit rate mode               : Constant
Bit rate                    : 256 kb/s
Channel(s)                  : 6 channels
Channel layout              : L R C LFE Ls Rs
Sampling rate               : 48.0 kHz
Frame rate                  : 31.250 FPS (1536 SPF)
Bit depth                   : 16 bits
Compression mode            : Lossy
Stream size                 : 190 MiB (15%)
Title                       : Besa (2009)
Language                    : Serbian
Service kind                : Complete Main
Default                     : Yes
Forced                      : No
Statistics Tags Issue       : mkvmerge v29.0.0 ('Like It Or Not') 64-bit 2018-12-17 16:55:20 / mkvmerge v29.0.0 ('Like It Or Not') 64-bit 2018-12-17 16:55:20 / UTC 2018-12-17T13:47:39Z
FromStats_BitRate           : 256000
FromStats_Duration          : 01:43:50.336000000
FromStats_FrameCount        : 194698
FromStats_StreamSize        : 199370752
 
Text
ID                          : 3
Format                      : UTF-8
Codec ID                    : S_TEXT/UTF8
Codec ID/Info               : UTF-8 Plain Text
Title                       : B E S A
Language                    : Serbian
Default                     : Yes
Forced                      : No
Statistics Tags Issue       : mkvmerge v29.0.0 ('Like It Or Not') 64-bit 2018-12-17 16:55:20 / mkvmerge v29.0.0 ('Like It Or Not') 64-bit 2018-12-17 16:55:20 / UTC 2018-12-17T13:47:39Z
FromStats_BitRate           : 2
FromStats_Duration          : 01:23:26.632000000
FromStats_FrameCount        : 44
FromStats_StreamSize        : 1340
 
epYscVA.png
Hidden Content
You'll be able to see the hidden content once you thank this post.
 
SoZTgMY.png
1bXcZh3.jpg

Edited by Wolf 13, 17 December 2018 - 21:13.


Thanked by 85 Members:

#3
Zoran_

Zoran_

    Gold Member

  • VIP
  • PipPipPipPipPipPip
  • 5,983 posts
  • 149005 thanks
Besa (2009)
 
 
Eah5eeA.png
 
Su6Ksi6.jpg
 

Please Login or Register to see this Hidden Content

 
Na samom pocetku prvog srpskog rata Filip, Srbin, direktor gimnazije u srpskoj provinciji dobija poziv da hitno dodje u Beograd po ratni raspored. Svoju suprugu Leu, mladu i zgodnu Slovenku nastavnicu ritmike i plesa koju je upoznao na studijama u zapadnoj Evropi nema kome da ostavi. Azem nepismeni i patrijarhalni Albanac, skolski posluzitelj, Filipu daje Besu da ce cuvati Leu i da joj se nista nece dogoditi. Neocekivana i nedozvoljena Ljubav izmedju Hriscanke i Muslimana preti da dovede u pitanje zadatu rec po zenu Zivota.
 
y866sy3924j.png
 
1aa5z73.gif
 
oUOkb3A.jpg
 
Oets6ur.gif
 
Besa (2009) DVDRip.x264.mkv
 
SFYUbuP.jpg
 
Hidden Content
You'll be able to see the hidden content once you thank this post.

Molbe za moje linkove, šaljite na PP.

 

Zabranjeno je kopiranje mojih linkova,reupload i postavljanje na druge forume!


Thanked by 34 Members:
pavla , pozezanka , debelodete , cera31081972 , andigrudge , filmolend , mikyzivotic , 303808909 , milanalorica , SEBAATMALJOKU , akkovacevic , Verdeja , vladica23 , fladoje , jumanjinz , morse , dknis , kybord , peropero , cigoyner , Alamo74 , blauer , mudrica , zorandju , deZorzo , sibiibis , Milfir , Jokso , rusko , beograd1960' , dragica , radonja86 , petkovicnini , Zelenac1



0 user(s) are reading this topic

0 members, 0 guests, 0 anonymous users