Jump to content

Dobrodošli na Balkandownload.org
Tražite domaće knjige, exyu magazine, sinhronizirane crtane filmove, PC i ostale igre, strane i domaće filmove, dokumentarce, stranu i domaću muziku, itd. ? Ne morate tražiti dalje jer sve ćete to naći kod nas, uredno postavljeno i spremno za download. Osim toga registracijom možete sudjelovati u raznim postojećim temama na forumu, otvarati nove teme, sudjelovati u chatu i još mnogo toga. Ako već imaš otvoren račun, logiraj se ovde ,a ako želiš saznati zašto smo najbolji otvori novi račun i uverite se sami :)
Photo

Zivjece ovaj narod (1947)


  • Please log in to reply
3 replies to this topic

#1
lape

lape

    Advanced Member

  • Members
  • PipPipPip
  • 291 posts
  • 137 thanks
  • LocationNis, Srbija

Zivjece ovaj narod (1947)

ziv000.png


:info:

Prema delu Branka Copica.

Kratak sadrzaj:
U podgrmeckoj oblasti, u zapadnoj Bosni, pocinje ustanak protiv nemackih okupatora i ustasa. Svi su obuzeti velikim entuzijazmom i zeljom za slobodom i pruzaju podrsku lokalnim partizanima. Mlada seoska devojka srpske nacionalnosti, Jagoda, zaljubljuje se u partizanskog komesara, Hrvata Ivana, specijalistu za miniranje zeleznickih pruga ...
 
 

Please Login or Register to see this Hidden Content


Podaci o fajlu:
Ime : Zivjece ovaj narod.avi
Velicina : 1.02 Gb
[Film]
Dobar : Da [AVI]
Trajnost : 01:29:08
Ceo Film : Da
[Video]
Rezolucija : 720x544
Kodek : DivX 5
FPS : 29.97
BitRejt : 1504 Kbps
Faktor kvaliteta : 0.13 b/px
[Audio]
Kodek : MPEG 1 or 2 Audio Layer 3 (MP3)
Broj kanala : 2
Frekvencija : 44100 Hz
BitRejt : 128 Kbps

Rezija: Nikola Popovic
Producent: Jadran Film
Scenario: Branko Copic
Muzika: Fran Lhotka
Snimatelj: Oktavijan Miletic
Scenografija: Miomir Denic
Zemlja porekla: Jugoslavija, Hrvatska
Montaza: Radojka Ivancevic-Tanhofer
Trajanje: 92 minuta
Tehnika: Standard, crno-beli

Uloge:
Vera Ilic-Djukic ... Jagoda
Sinisa Ravasi ... Ivan
Fran Novakovic ... Djed Ilija
Milica-Carka Jovanovic ... Baba
Nikola Popovic ... Profesor
Vaso Kosic ... Obrad
Misa Mirkovic ... Partizanski kurir Mico
Dobrica Milutinovic ... Djed Vuk
Emil Kutijaro ... Partijac
Joza Gregorin ... Milan
Aleksandar Stojkovic ... Krljo
Milutin Jasnic ... Brko
Vjekoslav Afric ... Drug Tito
Mato Grkovic
Sima Janicijevic

:screen:
 

zivjeceovajnarod.jpg


:down:
 

Please Login or Register to see this Hidden Content

 

Thanked by 1 Member:
zoran kostic

#2
MaliGrizeBeton

MaliGrizeBeton

    Silver Member

  • Members
  • PipPipPipPipPip
  • 2,524 posts
  • 3884 thanks

Zivjece ovaj narod (1947)


 
ziv000.png
 

Prema delu Branka Copica.


 
U podgrmeckoj oblasti, u zapadnoj Bosni, pocinje ustanak protiv nemackih okupatora i ustasa. Svi su obuzeti velikim entuzijazmom i zeljom za slobodom i pruzaju podrsku lokalnim partizanima. Mlada seoska devojka srpske nacionalnosti, Jagoda, zaljubljuje se u partizanskog komesara, Hrvata Ivana, specijalistu za miniranje zeleznickih pruga ...

 

 

Please Login or Register to see this Hidden Content


 

Please Login or Register to see this Hidden Content

 

 
Upload domacih filmova posvecen jednom od najvecih uplaodera domacih filmova Lape Vecna ti slava druze.


Edited by MaliGrizeBeton, 02 November 2014 - 19:41.


Thanked by 4 Members:
mikula11 , zoran kostic , *KOVAC* , 1zec

#3
MaliGrizeBeton

MaliGrizeBeton

    Silver Member

  • Members
  • PipPipPipPipPip
  • 2,524 posts
  • 3884 thanks

Novi link



#4
LEMONZOO

LEMONZOO

    Advanced Member

  • VIP
  • PipPipPip
  • 739 posts
  • 2997 thanks
  • LocationGavran Mahala

Zivjece ovaj narod (1947) AKA The Unconquered People AKA This Nation Will Live
 
film_zivjece_ovaj_narh9sp9.jpg
 

Please Login or Register to see this Hidden Content

 
 
The Unconquered People is a paean to the Yugoslav Partisans of WW II. When the Nazis invade their country, the partisans defiantly resist by any means necessary. Special attention is given the resistance movement's sabotage efforts against the German occupying troops. Surprisingly, these scenes are offered with little or no buildup: we know what happens, but we're never clued in as to the "who" and "why." To give the largely unrelated scenes some cohesion, the film offers a contrived romance between a young female partisan and the group's leader. Director Nikola Popovic shows up as an elderly, philosophical professor.
 

General

Complete name : Živjeće ovaj narod.avi
Format                                   : AVI
Format/Info                              : Audio Video Interleave
File size                                : 1.02 GiB
Duration                                 : 1h 29mn
Overall bit rate                         : 1 632 Kbps
Writing library                          : MPlayer
 
Video
ID                                       : 0
Format                                   : MPEG-4 Visual
Format profile                           : [email protected]
Format settings, BVOP                    : No
Format settings, QPel                    : No
Format settings, GMC                     : No warppoints
Format settings, Matrix                  : Default (H.263)
Codec ID                                 : DX50
Codec ID/Hint                            : DivX 5
Duration                                 : 1h 29mn
Bit rate                                 : 1 491 Kbps
Width                                    : 720 pixels
Height                                   : 544 pixels
Display aspect ratio                     : 4:3
Frame rate                               : 29.970 fps
Color space                              : YUV
Chroma subsampling                       : 4:2:0
Bit depth                                : 8 bits
Scan type                                : Progressive
Compression mode                         : Lossy
Bits/(Pixel*Frame)                       : 0.127
Stream size                              : 951 MiB (91%)
Writing library                          : Lavc51.47.2
 
Audio
ID                                       : 1
Format                                   : MPEG Audio
Format version                           : Version 1
Format profile                           : Layer 3
Mode                                     : Joint stereo
Codec ID                                 : 55
Codec ID/Hint                            : MP3
Duration                                 : 1h 29mn
Bit rate mode                            : Constant
Bit rate                                 : 128 Kbps
Channel count                            : 2 channels
Sampling rate                            : 44.1 KHz
Compression mode                         : Lossy
Stream size                              : 81.6 MiB (8%)
Alignment                                : Aligned on interleaves
Interleave, duration                     : 26 ms (0.78 video frame)
Interleave, preload duration             : 522 ms
Writing library                          : LAME3.97
 
 
ivjeeovajnarod.avi_00zeslj.jpg
 
ivjeeovajnarod.avi_00z7ssd.jpg
 
ivjeeovajnarod.avi_00c5s1r.jpg
 
ivjeeovajnarod.avi_00uqs23.jpg
 
ivjeeovajnarod.avi_00vuszx.jpg
 
ivjeeovajnarod.avi_00czs0a.jpg
 
ivjeeovajnarod.avi_00u7s6c.jpg
 
ivjeeovajnarod.avi_00o3sz2.jpg
 
ivjeeovajnarod.avi_00mgsbk.jpg
 
ivjeeovajnarod.avi_00kbsjk.jpg
 
Link:
Hidden Content
You'll be able to see the hidden content once you thank this post.

Edited by LEMONZOO, 09 November 2014 - 02:21.


Thanked by 5 Members:
nenad027 , blazenko72 , mikula11 , zoran kostic , *KOVAC*



0 user(s) are reading this topic

0 members, 0 guests, 0 anonymous users