Jump to content

Dobrodošli na Balkandownload.org
Tražite domaće knjige, exyu magazine, sinhronizirane crtane filmove, PC i ostale igre, strane i domaće filmove, dokumentarce, stranu i domaću muziku, itd. ? Ne morate tražiti dalje jer sve ćete to naći kod nas, uredno postavljeno i spremno za download. Osim toga registracijom možete sudjelovati u raznim postojećim temama na forumu, otvarati nove teme, sudjelovati u chatu i još mnogo toga. Ako već imaš otvoren račun, logiraj se ovde ,a ako želiš saznati zašto smo najbolji otvori novi račun i uverite se sami :)
Photo

Orlovi rano lete (1966)


2 replies to this topic

#1
lape

lape

    Advanced Member

  • Members
  • PipPipPip
  • 291 posts
  • 977 thanks
  • LocationNis, Srbija

Orlovi rano lete (1966)

 



Thanked by 114 Members:

#2
Wolf 13

Wolf 13

    Advanced Member

  • Members
  • PipPipPip
  • 426 posts
  • 33402 thanks
Orlovi rano lete (1966) DVDrip AC3 5.1 x264 by Wolf
(MKV) HQ
 
crzSJKc.jpg
 

Please Login or Register to see this Hidden Content

 

General
Unique ID                   : 100752907837250445070421631963146913621 (0x4BCC4DE1484390DF5F52D9DFA0CA8755)
Complete name               : Orlovi rano lete (1966) DVDrip AC3 5.1 x264 by Wolf.mkv
Format                      : Matroska
Format version              : Version 4 / Version 2
File size                   : 1.08 GiB
Duration                    : 1 h 28 min
Overall bit rate            : 1 743 kb/s
Encoded date                : UTC 2018-12-02 15:25:21 / UTC 2018-12-02T12:02:11Z
Writing application         : mkvmerge v29.0.0 ('Like It Or Not') 64-bit
Writing library             : libebml v1.3.6 + libmatroska v1.4.9 / Lavf57.7.2
 
Video
ID                          : 1
Format                      : AVC
Format/Info                 : Advanced Video Codec
Format profile              : [email protected]
Format settings             : CABAC / 8 Ref Frames
Format settings, CABAC      : Yes
Format settings, ReFrames   : 8 frames
Codec ID                    : V_MPEG4/ISO/AVC
Duration                    : 1 h 28 min
Bit rate                    : 1 500 kb/s
Width                       : 696 pixels
Height                      : 572 pixels
Display aspect ratio        : 1.729
Original display aspect rat : 1.731
Frame rate mode             : Constant
Frame rate                  : 25.000 FPS
Color space                 : YUV
Chroma subsampling          : 4:2:0
Bit depth                   : 8 bits
Scan type                   : Progressive
Bits/(Pixel*Frame)          : 0.151
Stream size                 : 924 MiB (83%)
Title                       : Orlovi rano lete (1966)
Writing library             : x264 core 155 r2901 7d0ff22
Encoding settings           : cabac=1 / ref=8 / deblock=1:-1:-1 / analyse=0x3:0x133 / me=umh / subme=9 / psy=1 / psy_rd=1.00:0.15 / mixed_ref=1 / me_range=16 / chroma_me=1 / trellis=2 / 8x8dct=1 / cqm=0 / deadzone=21,11 / fast_pskip=1 / chroma_qp_offset=-3 / threads=6 / lookahead_threads=1 / sliced_threads=0 / nr=0 / decimate=1 / interlaced=0 / bluray_compat=0 / constrained_intra=0 / bframes=3 / b_pyramid=2 / b_adapt=2 / b_bias=0 / direct=3 / weightb=1 / open_gop=0 / weightp=2 / keyint=250 / keyint_min=25 / scenecut=40 / intra_refresh=0 / rc_lookahead=60 / rc=2pass / mbtree=1 / bitrate=1500 / ratetol=1.0 / qcomp=0.60 / qpmin=0 / qpmax=69 / qpstep=4 / cplxblur=20.0 / qblur=0.5 / vbv_maxrate=300000 / vbv_bufsize=300000 / nal_hrd=none / filler=0 / ip_ratio=1.40 / aq=1:1.00
Language                    : Serbian
Default                     : Yes
Forced                      : No
Color range                 : Limited
Color primaries             : BT.601 PAL
Transfer characteristics    : BT.709
Matrix coefficients         : BT.601
Statistics Tags Issue       : mkvmerge v29.0.0 ('Like It Or Not') 64-bit 2018-12-02 15:25:21 / mkvmerge v29.0.0 ('Like It Or Not') 64-bit 2018-12-02 15:25:21 / UTC 2018-12-02T12:02:11Z
FromStats_BitRate           : 1499774
FromStats_Duration          : 01:28:07.000000000
FromStats_FrameCount        : 132165
FromStats_StreamSize        : 991163713
 
Audio
ID                          : 2
Format                      : E-AC-3
Format/Info                 : Enhanced Audio Coding 3
Codec ID                    : A_EAC3
Duration                    : 1 h 28 min
Bit rate mode               : Constant
Bit rate                    : 256 kb/s
Channel(s)                  : 6 channels
Channel positions           : Front: L C R, Side: L R, LFE
Sampling rate               : 48.0 kHz
Frame rate                  : 187.500 FPS (256 SPF)
Compression mode            : Lossy
Stream size                 : 163 MiB (15%)
Title                       : Orlovi rano lete (1966)
Language                    : Serbian
Service kind                : Complete Main
Default                     : Yes
Forced                      : No
Statistics Tags Issue       : mkvmerge v29.0.0 ('Like It Or Not') 64-bit 2018-12-02 15:25:21 / mkvmerge v29.0.0 ('Like It Or Not') 64-bit 2018-12-02 15:25:21 / UTC 2018-12-02T12:02:11Z
FromStats_BitRate           : 256000
FromStats_Duration          : 01:28:57.408000000
FromStats_FrameCount        : 166794
FromStats_StreamSize        : 170797056
 
epYscVA.png
Hidden Content
You'll be able to see the hidden content once you thank this post.
 
cDWUL9O.png
098eIna.jpg

Edited by Wolf 13, 02 December 2018 - 18:33.


Thanked by 302 Members:

#3
Zoran_

Zoran_

    Gold Member

  • VIP
  • PipPipPipPipPipPip
  • 5,984 posts
  • 149254 thanks
Orlovi rano lete (1966)
 
 
Orloviranolete1966.png
 
Su6Ksi6.jpg
 

Please Login or Register to see this Hidden Content

 
Rat je decju igru pretvorio u istinski poduhvat. Druzina djaka iz sela pod Grmecom, koja se uoci rata odmetala u 'hajduke' zbog ponasanja svoga ucitelja, u ratnim danima hajdukuje da bi pomogla selu i partizanima ...Ekranizacija istoimenog romana Branka Copica.
 
Orloviranolete1966.avi.gif
 
Orloviranolete1966.avi.jpg
 
Oets6ur.gif
 
Orlovi rano lete (1966) DVDRip.XviD.avi
 
SFYUbuP.jpg
 
Hidden Content
You'll be able to see the hidden content once you thank this post.

Molbe za moje linkove, šaljite na PP.

 

Zabranjeno je kopiranje mojih linkova,reupload i postavljanje na druge forume!


Thanked by 97 Members:



0 user(s) are reading this topic

0 members, 0 guests, 0 anonymous users