Jump to content

Dobrodošli na Balkandownload.org
Tražite domaće knjige, exyu magazine, sinhronizirane crtane filmove, PC i ostale igre, strane i domaće filmove, dokumentarce, stranu i domaću muziku, itd. ? Ne morate tražiti dalje jer sve ćete to naći kod nas, uredno postavljeno i spremno za download. Osim toga registracijom možete sudjelovati u raznim postojećim temama na forumu, otvarati nove teme, sudjelovati u chatu i još mnogo toga. Ako već imaš otvoren račun, logiraj se ovde ,a ako želiš saznati zašto smo najbolji otvori novi račun i uverite se sami :)
Photo

Caruga (1991)


3 replies to this topic

#1
lape

lape

    Advanced Member

  • Members
  • PipPipPip
  • 291 posts
  • 977 thanks
  • LocationNis, Srbija

Caruga (1991)

XhVmgKQ.jpg


:info:

Kada se 1918.godine vratio s ruskog fronta u svoju Slavoniju, Jovo Stanisavljevic Caruga i njegov drug Mali, pridruzuju se banditu Bozi Crvenom, koji, inspirisan Oktobarskom revolucijom, vodi borbu s rezimom za ravnopravnije drustvo. Kada zandarmi ubiju Bozu, Caruga postaje vodja bande. Ubrzo se pretvaraju u bandu beskropuloznih kriminalaca koje nista ne moze zaustaviti. Caruga postaje bogat, menja svoj identitet, pretvarajuci se u uzornog gradjanina, drugujuci sa najljucim neprijateljem, sefom policije. Uprkos tome, krug oko cuvenog kriminalca se suzava ...
Ovaj film govori o utopiji zvanoj komunizam, snovima o tome da svi imaju onoliko koliko im treba. Miris novca progutao je Caruginu utopiju ...
 
 

Please Login or Register to see this Hidden Content



Thanked by 101 Members:

#2
nikolakralj100

nikolakralj100

    Advanced Member

  • Members
  • PipPipPip
  • 346 posts
  • 20515 thanks

DVDr

 

XhVmgKQ.jpg

 

aYSPumX.jpg

 

Hidden Content
You'll be able to see the hidden content once you thank this post.

Edited by nikolakralj100, 20 November 2017 - 23:50.


Thanked by 228 Members:

#3
Zoran_

Zoran_

    Gold Member

  • VIP
  • PipPipPipPipPipPip
  • 5,984 posts
  • 149278 thanks
Caruga (1991)
 
 
Caruga1991.png
 
imdb6.jpg
 

Please Login or Register to see this Hidden Content

 
Kada se 1918.godine vratio s ruskog fronta u svoju Slavoniju, Jovo Stanisavljevic Caruga i njegovdrug Mali, pridruzuju se banditu Bozi Crvenom, koji, inspirisan Oktobarskom revolucijom, vodiborbu s rezimom za ravnopravnije drustvo. Kada zandarmi ubiju Bozu, Caruga postaje vodjabande. Ubrzo se pretvaraju u bandu beskropuloznih kriminalaca koje nista ne moze zaustaviti.Caruga postaje bogat, menja svoj identitet, pretvarajuci se u uzornog gradjanina, drugujuci sa najljucim neprijateljem, sefom policije. Uprkos tome, krug oko cuvenog kriminalca se uzav.Ovaj film govori o utopiji zvanoj komunizam, snovima o tome da svi imaju onoliko koliko im treba. Miris novca progutao je Caruginu utopiju ...
 
Caruga1991.avi.gif
 
Caruga1991.avi.jpg
 
downloade0cdd.gif
 
Caruga (1991) DVDRip.XviD.avi
 
SFYUbuP.jpg
 
Hidden Content
You'll be able to see the hidden content once you thank this post.

Molbe za moje linkove, šaljite na PP.

 

Zabranjeno je kopiranje mojih linkova,reupload i postavljanje na druge forume!


Thanked by 116 Members:

#4
Wolf 13

Wolf 13

    Advanced Member

  • Members
  • PipPipPip
  • 426 posts
  • 33419 thanks
Caruga (1991) DVDrip DD5.1 x264 by Wolf
(MKV)
 
zjlmP8n.jpg
 

Please Login or Register to see this Hidden Content

 

General
Unique ID                   : 291799832269647132827585708481343498177 (0xDB869A7D3DBD7276BD41846EEDF5A7C1)
Complete name               : Caruga (1991) DVDrip DD5.1 x264 by Wolf.mkv
Format                      : Matroska
Format version              : Version 4
File size                   : 1.32 GiB
Duration                    : 1 h 41 min
Overall bit rate            : 1 858 kb/s
Encoded date                : UTC 2019-02-09 22:37:32
Writing application         : mkvmerge v31.0.0 ('Dolores In A Shoestand') 64-bit
Writing library             : libebml v1.3.6 + libmatroska v1.4.9 / Lavf58.20.100
 
Video
ID                          : 1
Format                      : AVC
Format/Info                 : Advanced Video Codec
Format profile              : [email protected]
Format settings             : CABAC / 8 Ref Frames
Format settings, CABAC      : Yes
Format settings, ReFrames   : 8 frames
Codec ID                    : V_MPEG4/ISO/AVC
Duration                    : 1 h 41 min
Bit rate                    : 1 600 kb/s
Width                       : 698 pixels
Height                      : 564 pixels
Display aspect ratio        : 16:9
Original display aspect rat : 16:10
Frame rate mode             : Constant
Frame rate                  : 25.000 FPS
Color space                 : YUV
Chroma subsampling          : 4:2:0
Bit depth                   : 8 bits
Scan type                   : Progressive
Bits/(Pixel*Frame)          : 0.163
Stream size                 : 1.14 GiB (86%)
Title                       : Caruga (1991)
Writing library             : x264 core 157 r2935 545de2f
Encoding settings           : cabac=1 / ref=8 / deblock=1:-1:-1 / analyse=0x3:0x133 / me=umh / subme=9 / psy=1 / psy_rd=1.00:0.15 / mixed_ref=1 / me_range=16 / chroma_me=1 / trellis=2 / 8x8dct=1 / cqm=0 / deadzone=21,11 / fast_pskip=1 / chroma_qp_offset=-3 / threads=6 / lookahead_threads=1 / sliced_threads=0 / nr=0 / decimate=1 / interlaced=0 / bluray_compat=0 / constrained_intra=0 / bframes=3 / b_pyramid=2 / b_adapt=2 / b_bias=0 / direct=3 / weightb=1 / open_gop=0 / weightp=2 / keyint=250 / keyint_min=25 / scenecut=40 / intra_refresh=0 / rc_lookahead=60 / rc=2pass / mbtree=1 / bitrate=1600 / ratetol=1.0 / qcomp=0.60 / qpmin=0 / qpmax=69 / qpstep=4 / cplxblur=20.0 / qblur=0.5 / vbv_maxrate=300000 / vbv_bufsize=300000 / nal_hrd=none / filler=0 / ip_ratio=1.40 / aq=1:1.00
Language                    : Croatian
Default                     : Yes
Forced                      : No
Color range                 : Limited
Color primaries             : BT.601 PAL
Transfer characteristics    : BT.709
Matrix coefficients         : BT.601
 
Audio
ID                          : 2
Format                      : E-AC-3
Format/Info                 : Enhanced AC-3
Commercial name             : Dolby Digital Plus
Codec ID                    : A_EAC3
Duration                    : 1 h 41 min
Bit rate mode               : Constant
Bit rate                    : 256 kb/s
Channel(s)                  : 6 channels
Channel layout              : L R C LFE Ls Rs
Sampling rate               : 48.0 kHz
Frame rate                  : 31.250 FPS (1536 SPF)
Compression mode            : Lossy
Delay relative to video     : -85 ms
Stream size                 : 186 MiB (14%)
Title                       : Caruga (1991)
Language                    : Croatian
Service kind                : Complete Main
Default                     : Yes
Forced                      : No
 
epYscVA.png
Hidden Content
You'll be able to see the hidden content once you thank this post.
 
0uNvJ1d.png
AGVSs4M.jpg


Thanked by 82 Members:



0 user(s) are reading this topic

0 members, 0 guests, 0 anonymous users