Jump to content

Dobrodošli na Balkandownload.org
Tražite domaće knjige, exyu magazine, sinhronizirane crtane filmove, PC i ostale igre, strane i domaće filmove, dokumentarce, stranu i domaću muziku, itd. ? Ne morate tražiti dalje jer sve ćete to naći kod nas, uredno postavljeno i spremno za download. Osim toga registracijom možete sudjelovati u raznim postojećim temama na forumu, otvarati nove teme, sudjelovati u chatu i još mnogo toga. Ako već imaš otvoren račun, logiraj se ovde ,a ako želiš saznati zašto smo najbolji otvori novi račun i uverite se sami :)
Photo

Sveti Georgije Ubiva Azdahu (2009)


2 replies to this topic

#1
Madball

Madball

    Bronze Member

  • Members
  • PipPipPipPip
  • 2,079 posts
  • 13321 thanks

Sveti Georgije Ubiva Azdahu (2009) DVDRip

 

svetigeorgije.jpg

 
 

Please Login or Register to see this Hidden Content

 
 

svetigeorgijeubivaazdah.png

 
 

downloadforumi.png

 
 


0kqb.gif      Mb9B.jpg


Thanked by 45 Members:
debelodete , Neum , kanader , DACK , Miki Faca , behringer , babr , RkoMax , osmanavramovic , Bogdan2011 , Inche , Simona21 , dedamiro , Marko7821 , chichavlada , Registriran , Simtsche , vmcolumbo , nebo666 , cochise , novita , vajtaun , rina-ma , grale , deluti , sneki811 , kormi17 , uxiuxi , Gagiii , zemlen , Ljubisa Spasojevic , markooo87 , gabriel912 , stevam , miki99 , dexk67 , trekiplex , DelBoj , hulk47 , mislim , duleduledule , gemba , draguljce86 , sve_i_svasta , nikolabns

#2
Wolf 13

Wolf 13

    Advanced Member

  • Members
  • PipPipPip
  • 426 posts
  • 33607 thanks
Sveti Georgije ubiva azdahu (2009) DVDrip AC3 x264 by Wolf
(MKV) HQ
 
2LgT8SG.jpg
 

Please Login or Register to see this Hidden Content

 

General
Unique ID                   : 333501157487286519609132791127192398311 (0xFAE5FC8FCD856A4AA97192BD9EE469E7)
Complete name               : Sveti Georgije ubiva azdahu (2009) DVDrip AC3 x264 by Wolf.mkv
Format                      : Matroska
Format version              : Version 4 / Version 2
File size                   : 1.43 GiB
Duration                    : 1 h 56 min
Overall bit rate            : 1 757 kb/s
Encoded date                : UTC 2018-11-30 16:46:02 / UTC 2018-11-30T13:54:40Z
Writing application         : mkvmerge v28.2.0 ('The Awakening') 64-bit
Writing library             : libebml v1.3.6 + libmatroska v1.4.9 / Lavf57.7.2
 
Video
ID                          : 1
Format                      : AVC
Format/Info                 : Advanced Video Codec
Format profile              : [email protected]
Format settings             : CABAC / 8 Ref Frames
Format settings, CABAC      : Yes
Format settings, ReFrames   : 8 frames
Codec ID                    : V_MPEG4/ISO/AVC
Duration                    : 1 h 56 min
Bit rate                    : 1 500 kb/s
Width                       : 716 pixels
Height                      : 436 pixels
Display aspect ratio        : 2.2:1
Original display aspect rat : 16:9
Frame rate mode             : Constant
Frame rate                  : 25.000 FPS
Color space                 : YUV
Chroma subsampling          : 4:2:0
Bit depth                   : 8 bits
Scan type                   : Progressive
Bits/(Pixel*Frame)          : 0.192
Stream size                 : 1.19 GiB (83%)
Title                       : Sveti Georgije ubiva azdahu (2009)
Writing library             : x264 core 155 r2901 7d0ff22
Encoding settings           : cabac=1 / ref=8 / deblock=1:-1:-1 / analyse=0x3:0x133 / me=umh / subme=9 / psy=1 / psy_rd=1.00:0.15 / mixed_ref=1 / me_range=16 / chroma_me=1 / trellis=2 / 8x8dct=1 / cqm=0 / deadzone=21,11 / fast_pskip=1 / chroma_qp_offset=-3 / threads=6 / lookahead_threads=1 / sliced_threads=0 / nr=0 / decimate=1 / interlaced=0 / bluray_compat=0 / constrained_intra=0 / bframes=3 / b_pyramid=2 / b_adapt=2 / b_bias=0 / direct=3 / weightb=1 / open_gop=0 / weightp=2 / keyint=250 / keyint_min=25 / scenecut=40 / intra_refresh=0 / rc_lookahead=60 / rc=2pass / mbtree=1 / bitrate=1500 / ratetol=1.0 / qcomp=0.60 / qpmin=0 / qpmax=69 / qpstep=4 / cplxblur=20.0 / qblur=0.5 / vbv_maxrate=300000 / vbv_bufsize=300000 / nal_hrd=none / filler=0 / ip_ratio=1.40 / aq=1:1.00
Language                    : Serbian
Default                     : Yes
Forced                      : No
Color range                 : Limited
Color primaries             : BT.601 PAL
Transfer characteristics    : BT.709
Matrix coefficients         : BT.601
Statistics Tags Issue       : mkvmerge v28.2.0 ('The Awakening') 64-bit 2018-11-30 16:46:02 / mkvmerge v28.2.0 ('The Awakening') 64-bit 2018-11-30 16:46:02 / UTC 2018-11-30T13:54:40Z
FromStats_BitRate           : 1499657
FromStats_Duration          : 01:56:20.000000000
FromStats_FrameCount        : 174500
FromStats_StreamSize        : 1308451049
 
Audio
ID                          : 2
Format                      : AC-3
Format/Info                 : Audio Coding 3
Codec ID                    : A_AC3
Duration                    : 1 h 56 min
Bit rate mode               : Constant
Bit rate                    : 256 kb/s
Channel(s)                  : 6 channels
Channel positions           : Front: L C R, Side: L R, LFE
Sampling rate               : 48.0 kHz
Frame rate                  : 31.250 FPS (1536 SPF)
Bit depth                   : 16 bits
Compression mode            : Lossy
Delay relative to video     : 3 s 272 ms
Stream size                 : 213 MiB (15%)
Title                       : Sveti Georgije ubiva azdahu (2009)
Language                    : Serbian
Service kind                : Complete Main
Default                     : Yes
Forced                      : No
Statistics Tags Issue       : mkvmerge v28.2.0 ('The Awakening') 64-bit 2018-11-30 16:46:02 / mkvmerge v28.2.0 ('The Awakening') 64-bit 2018-11-30 16:46:02 / UTC 2018-11-30T13:54:40Z
FromStats_BitRate           : 256000
FromStats_Duration          : 01:56:16.736000000
FromStats_FrameCount        : 218023
FromStats_StreamSize        : 223255552
 
epYscVA.png
Hidden Content
You'll be able to see the hidden content once you thank this post.
 
DQNZxWO.png
HMq3Aen.jpg

Edited by Wolf 13, 30 November 2018 - 20:46.


Thanked by 111 Members:

#3
Zoran_

Zoran_

    Gold Member

  • VIP
  • PipPipPipPipPipPip
  • 5,990 posts
  • 149768 thanks
Sveti Georgije ubiva azdahu (2009)
 
 
SvetiGeorgijeubivaazdahu2009.png
 
Su6Ksi6.jpg
 

Please Login or Register to see this Hidden Content

 
Godina 1914, selo u Srbiji na granici sa Austrougarskom. U selu vlada animozitet izmedju dve grupe - telesno sposobnih i zdravih regruta i invalida, veterana prethodna dva Balkanska rata. Ubrzo izbija Prvi svetski rat i zdravi deo sela je mobilisan. To izaziva revolt kod invalida koji pokušavaju da iskoriste žene vojnih regruta. Kako bi sprecila neprijatnosti i pobunu, vojska odlucuje da mobiliše i invalide.Ovi neobicni dogadjaji su pozadina za nesrecni ljubavni trougao izmedju mladog ratnog invalida, lokalnog policajca i njegove žene, koji se okoncava kao u grckoj tragediji.
 
ba36gnx7t3z.png
 
SvetiGeorgijeubivaazdahu2009.avi.gif
 
SvetiGeorgijeubivaazdahu2009.avi.jpg
 
Oets6ur.gif
 
Sveti Georgije ubiva azdahu (2009) DVDRip.XviD.avi
 
SFYUbuP.jpg
 
Hidden Content
You'll be able to see the hidden content once you thank this post.

Molbe za moje linkove, šaljite na PP.

 

Zabranjeno je kopiranje mojih linkova,reupload i postavljanje na druge forume!


Thanked by 64 Members:
miloradbo , playlife , DJ Zlayo , aaduric , netrebamime , debelodete , ivke 23 , 303808909 , goransokolovic.fr , goghh , sinidj , dedamiro , milanalorica , kockari , damir977 , vito.corleone , PNPN , Franci , runjaa , kanader , Bontonko , vajtaun , missr , Dadohh , DACK , Veljko Pele , babr , LordKG , dj1van , Miki Faca , insider011 , kanki , Myco00 , RkoMax , macessatt , kivan84 , ljubisa1968 , DarkmanX2 , osmanavramovic , AccccO , Miruneli , scarto , MiraDr , Doda47 , Anki , matic87 , Milfir , Jokso , nikolaradis , santiago11 , Vronsky , Gorolomac , zoran48 , MP22 , epikur69 , Petronije11 , gadfincher , miki-maus23 , dijana31 , Biotloneta , jumanjinz , dzogani , retar , svetijovan



0 user(s) are reading this topic

0 members, 0 guests, 0 anonymous users