Jump to content

Dobrodošli na Balkandownload.org
Tražite domaće knjige, exyu magazine, sinhronizirane crtane filmove, PC i ostale igre, strane i domaće filmove, dokumentarce, stranu i domaću muziku, itd. ? Ne morate tražiti dalje jer sve ćete to naći kod nas, uredno postavljeno i spremno za download. Osim toga registracijom možete sudjelovati u raznim postojećim temama na forumu, otvarati nove teme, sudjelovati u chatu i još mnogo toga. Ako već imaš otvoren račun, logiraj se ovde ,a ako želiš saznati zašto smo najbolji otvori novi račun i uverite se sami :)
Photo

Jasmina (2010)


1 reply to this topic

#1
Tobacco Road

Tobacco Road

    The Warez GOD

  • Tobacco
  • PipPipPipPipPipPipPipPipPipPip
  • 23,347 posts
  • 992601 thanks
  • Locationscrls
Jasmina (2010) DVDRip XviD 700mb


1.png
 
 
 

Please Login or Register to see this Hidden Content

 
 

Zanr: Drama
Režiser: Nedzad Begovic
Glavne uloge: Zijah Sokolovic, Nada Đurevska i Amila Djikoli

Beba Jasmina s nanom napušta ratno Sarajevo te život nastavljaju u malom hrvatskom primorskom gradicu. Njihov se život komplicira iznenadnom bolešcu nane, a kasnije njenom smrcu dovodi u pitanje opstanak bebe. Brigu o njoj preuzima lokalni pijanac, koji svoj život transformira posvecujuci se potpuno Jasmini.


Screen

nblc2.jpg



Download

 

 

Kako skinuti nesto sa Balkandownload-a?

www.slideshare.net/bd4yu/kako-skidati-fajlove-sa-balkan-download-a

Kako da pronadjete zeljeni sadrzaj na forumu? 

www.balkandownload.org/topic/40428-kako-pronaci-zeljeni-sadrzaj-na-forumu/

Najmračniji krugovi pakla su rezervisani za one koji u vremenima moralne krize ostanu neutralni i suzdržani -Dante Alighieri


Thanked by 17 Members:
Jorgos , goransokolovic.fr , IdeMile , kanki , salgija , larki , dhorvat08 , hajdukjovance , kresomirovic , katevojtković , ikoc , Alvin10 , edin.bec , musa58 , gorza , borisque , tasim

#2
Wolf 13

Wolf 13

    Advanced Member

  • Members
  • PipPipPip
  • 426 posts
  • 33320 thanks
Jasmina (2010) 720p BRrip AC3 5.1 x264 up. by Wolf
(MKV)
 
CRHgGWT.jpg
 

Please Login or Register to see this Hidden Content

 

General
Unique ID                   : 38425475214711436242656868163127447324 (0x1CE87A329532303E27DBE17373818F1C)
Complete name               : Jasmina (2010) 720p BRrip AC3 x264 up. by Wolf.mkv
Format                      : Matroska
Format version              : Version 4
File size                   : 1.10 GiB
Duration                    : 1 h 29 min
Overall bit rate            : 1 757 kb/s
Encoded date                : UTC 2018-12-23 18:32:49 / UTC 2018-12-23T14:38:30Z
Writing application         : mkvmerge v29.0.0 ('Like It Or Not') 64-bit
Writing library             : libebml v1.3.6 + libmatroska v1.4.9 / Lavf57.7.2
 
Video
ID                          : 1
Format                      : AVC
Format/Info                 : Advanced Video Codec
Format profile              : [email protected]
Format settings             : CABAC / 5 Ref Frames
Format settings, CABAC      : Yes
Format settings, ReFrames   : 5 frames
Codec ID                    : V_MPEG4/ISO/AVC
Duration                    : 1 h 29 min
Bit rate                    : 1 500 kb/s
Width                       : 1 280 pixels
Height                      : 704 pixels
Display aspect ratio        : 16:9
Frame rate mode             : Constant
Frame rate                  : 25.000 FPS
Color space                 : YUV
Chroma subsampling          : 4:2:0
Bit depth                   : 8 bits
Scan type                   : Progressive
Bits/(Pixel*Frame)          : 0.067
Stream size                 : 942 MiB (83%)
Title                       : Jasmina (2010)
Writing library             : x264 core 155 r2901 7d0ff22
Encoding settings           : cabac=1 / ref=5 / deblock=1:-1:-1 / analyse=0x3:0x113 / me=hex / subme=8 / psy=1 / psy_rd=1.00:0.15 / mixed_ref=1 / me_range=16 / chroma_me=1 / trellis=2 / 8x8dct=1 / cqm=0 / deadzone=21,11 / fast_pskip=1 / chroma_qp_offset=-3 / threads=6 / lookahead_threads=1 / sliced_threads=0 / nr=0 / decimate=1 / interlaced=0 / bluray_compat=0 / constrained_intra=0 / bframes=3 / b_pyramid=2 / b_adapt=1 / b_bias=0 / direct=3 / weightb=1 / open_gop=0 / weightp=2 / keyint=250 / keyint_min=25 / scenecut=40 / intra_refresh=0 / rc_lookahead=50 / rc=2pass / mbtree=1 / bitrate=1500 / ratetol=1.0 / qcomp=0.60 / qpmin=0 / qpmax=69 / qpstep=4 / cplxblur=20.0 / qblur=0.5 / vbv_maxrate=62500 / vbv_bufsize=78125 / nal_hrd=none / filler=0 / ip_ratio=1.40 / aq=1:1.00
Language                    : Bosnian
Default                     : Yes
Forced                      : No
Color range                 : Limited
Color primaries             : BT.709
Transfer characteristics    : BT.709
Matrix coefficients         : BT.709
Statistics Tags Issue       : mkvmerge v29.0.0 ('Like It Or Not') 64-bit 2018-12-23 18:32:49 / mkvmerge v29.0.0 ('Like It Or Not') 64-bit 2018-12-23 18:32:49 / UTC 2018-12-23T14:38:30Z
FromStats_BitRate           : 1499707
FromStats_Duration          : 01:29:48.680000000
FromStats_FrameCount        : 134717
FromStats_StreamSize        : 1010180386
 
Audio
ID                          : 2
Format                      : E-AC-3
Format/Info                 : Enhanced AC-3
Commercial name             : Dolby Digital Plus
Codec ID                    : A_EAC3
Duration                    : 1 h 29 min
Bit rate mode               : Constant
Bit rate                    : 256 kb/s
Channel(s)                  : 6 channels
Channel layout              : L R C LFE Ls Rs
Sampling rate               : 48.0 kHz
Frame rate                  : 31.250 FPS (1536 SPF)
Compression mode            : Lossy
Delay relative to video     : -5 ms
Stream size                 : 164 MiB (15%)
Title                       : Jasmina (2010)
Language                    : Bosnian
Service kind                : Complete Main
Default                     : Yes
Forced                      : No
Statistics Tags Issue       : mkvmerge v29.0.0 ('Like It Or Not') 64-bit 2018-12-23 18:32:49 / mkvmerge v29.0.0 ('Like It Or Not') 64-bit 2018-12-23 18:32:49 / UTC 2018-12-23T14:38:30Z
FromStats_BitRate           : 256000
FromStats_Duration          : 01:29:48.800000000
FromStats_FrameCount        : 168400
FromStats_StreamSize        : 172441600
 
epYscVA.png
Hidden Content
You'll be able to see the hidden content once you thank this post.
 
WvPB5N4.png
6Av0uZ6.jpg


Thanked by 37 Members:
Jorgos , edin.bec , lilke , james12320 , b50andi , IdeMile , chefko , sarajka2 , rafael13 , kanki , kockari , satserb , dragan13 , danijeladanijel , granamax , rusko , salgija , Dule016 , vfk45 , lika , bratobulje , Proktus011 , iceman_79 , larki , dhorvat08 , dragica , Zelenac1 , icaleptir , bule68 , draganiuss , zoran48 , senilni , goraneo , alando9 , Jokso , BobbyPeruAd , Miki_Kiki_Riki



0 user(s) are reading this topic

0 members, 0 guests, 0 anonymous users