Jump to content

Dobrodošli na Balkandownload.org
Tražite domaće knjige, exyu magazine, sinhronizirane crtane filmove, PC i ostale igre, strane i domaće filmove, dokumentarce, stranu i domaću muziku, itd. ? Ne morate tražiti dalje jer sve ćete to naći kod nas, uredno postavljeno i spremno za download. Osim toga registracijom možete sudjelovati u raznim postojećim temama na forumu, otvarati nove teme, sudjelovati u chatu i još mnogo toga. Ako već imaš otvoren račun, logiraj se ovde ,a ako želiš saznati zašto smo najbolji otvori novi račun i uverite se sami :)
Photo

Scooby Doo: Safari Creatures (2012)


  • Please log in to reply
1 reply to this topic

#1
Tobacco Road

Tobacco Road

    The Warez GOD

  • Tobacco
  • PipPipPipPipPipPipPipPipPipPip
  • 17,645 posts
  • 126274 thanks
  • Locationscrls
Scooby Doo: Safari Creatures (2012) DVDRip XviD-UnKnOwN


Posted Image


Please Login or Register to see this Hidden Content


Genre: Animated | Kids

Size: 678 MB
Video: XviD | 640×400 | 1681 kbps
Audio: English | AC-3 | 192kbps
Runtime: 1h 01mn

This mysterious release from the animated series WHAT’S NEW, SCOOBY-DOO? includes a collection of three episodes from the show, following the inhabitants of the Mystery Machine, Fred, Velma, Daphne, Shaggy, and of course, Scooby, as they go toe to toe with hauntings and mysteries of every stripe.


Screen

Posted Image



Download

Please Login or Register to see this Hidden Content


Edited by didica13, 18 December 2012 - 02:45.

Kako skinuti nesto sa Balkandownload-a?

 

 

http://www.slideshare.net/bd4yu/kako-skidati-fajlove-sa-balkan-download-a

 

 

Kako da pronadjete zeljeni sadrzaj na forumu? 

 

 

http://www.balkandownload.org/topic/40428-kako-pronaci-zeljeni-sadrzaj-na-forumu/

 

Najmračniji krugovi pakla su rezervisani za one koji u vremenima moralne krize ostanu neutralni i suzdržani -Dante Alighieri


Thanked by 1 Member:
mastablasta

#2
Kokis

Kokis

    Advanced Member

  • Members
  • PipPipPip
  • 109 posts
  • 178 thanks

Scooby Doo Safari Creatures 2012


Posted Image


General
Complete name: Scooby.Doo.Safari.Creatures.2012.DVDRip.XviD-SrpskaForum.com.avi
Format : AVI
Format/Info: Audio Video Interleave
File size: 678 MiB
Duration : 1h 3mn
Overall bit rate : 1 490 Kbps
Writing library: VirtualDub build 32817/release

Video
ID : 0
Format : MPEG-4 Visual
Format profile : Advanced [email protected]
Format settings, BVOP: 2
Format settings, QPel: No
Format settings, GMC : No warppoints
Format settings, Matrix: Default (H.263)
Muxing mode: Packed bitstream
Codec ID : XVID
Codec ID/Hint: XviD
Duration : 1h 3mn
Bit rate : 1 286 Kbps
Width: 640 pixels
Height : 400 pixels
Display aspect ratio : 1.600
Frame rate : 29.970 fps
Color space: YUV
Chroma subsampling : 4:2:0
Bit depth: 8 bits
Scan type: Progressive
Compression mode : Lossy
Bits/(Pixel*Frame) : 0.168
Stream size: 586 MiB (86%)
Writing library: XviD 64

Audio
ID : 1
Format : AC-3
Format/Info: Audio Coding 3
Mode extension : CM (complete main)
Format settings, Endianness: Big
Codec ID : 2000
Duration : 1h 3mn
Bit rate mode: Constant
Bit rate : 192 Kbps
Channel(s) : 2 channels
Channel positions: Front: L R
Sampling rate: 48.0 KHz
Bit depth: 16 bits
Compression mode : Lossy
Stream size: 87.4 MiB (13%)
Alignment: Aligned on interleaves
Interleave, duration : 33 ms (1.00 video frame)
Interleave, preload duration : 512 ms


Please Login or Register to see this Hidden Content


Screens


Posted Image


Download


Please Login or Register to see this Hidden Content


Edited by didica13, 18 December 2012 - 02:46.


Thanked by 1 Member:
mastablasta



0 user(s) are reading this topic

0 members, 0 guests, 0 anonymous users