Jump to content

Dobrodošli na Balkandownload.org
Tražite domaće knjige, exyu magazine, sinhronizirane crtane filmove, PC i ostale igre, strane i domaće filmove, dokumentarce, stranu i domaću muziku, itd. ? Ne morate tražiti dalje jer sve ćete to naći kod nas, uredno postavljeno i spremno za download. Osim toga registracijom možete sudjelovati u raznim postojećim temama na forumu, otvarati nove teme, sudjelovati u chatu i još mnogo toga. Ako već imaš otvoren račun, logiraj se ovde ,a ako želiš saznati zašto smo najbolji otvori novi račun i uverite se sami :)
Photo

Kad Miki kaze da se boji (2005)


  • Please log in to reply
No replies to this topic

#1
pparadiso

pparadiso

    Advanced Member

  • Members
  • PipPipPip
  • 817 posts
  • 295 thanks
Kad Miki kaze da se boji (2005)

Posted Image

Dokumentarac o junacima Stulicevih pesama snimljen je 2005. godine u reziji Ines Pletikos koja je saradjivala na scenariju sa Petrinovicem. Knjigu je Kruno objavio godinu dana kasnije u izdanju "Umjetnicke organizacije Uradi nesto".

Imenima koja smo dosad slusali u pesmama Johnnyja Stulica konacno su pridruzena lica. Azromani i postovaoci Johnny-jevog kulta zahvaljujuci rediteljsko-scenaristickom dvojcu Pletikos - Petrinovic mogu napokon videti Mirnu, Ceru, Suzy F, Maju Prist, Graciju, Mikija i Jablana, kao i mnoge druge s kojima su autori vodili razgovore i napokon saznati sta se krije iza naziva "Filigranski plocnici". U dokumentarcu snimljenom u samo 13 dana otkrivaju se i detalji vezani uz urbanu scenu iz vremena nastajanja Stulicevih hitova, dakle, dobar dio sedamdesetih i osamdesetih, njegova dosad neistrazena intima i drustveno-politicke okolnosti u kojima je stvarao.

Posted Image

Format : AVI
Format/Info : Audio Video Interleave
File size : 700 MiB
Duration : 1h 37mn
Overall bit rate : 1 005 Kbps
Writing application : VirtualDubMod 1.5.4.1 (build 2178/release)
Writing library : VirtualDubMod build 2178/release

Video
ID : 0
Format : MPEG-4 Visual
Format profile : [email protected]
Format settings, BVOP : 1
Format settings, QPel : No
Format settings, GMC : No warppoints
Format settings, Matrix : Custom
Codec ID : XVID
Codec ID/Hint : XviD
Duration : 1h 37mn
Bit rate : 886 Kbps
Width : 496 pixels
Height : 368 pixels
Display aspect ratio : 4:3
Frame rate : 25.000 fps
Color space : YUV
Chroma subsampling : 4:2:0
Bit depth : 8 bits
Scan type : Progressive
Compression mode : Lossy
Bits/(Pixel*Frame) : 0.194
Stream size : 617 MiB (88%)
Writing library : XviD 1.0.1 (UTC 2004-06-05)

Audio
ID : 1
Format : MPEG Audio
Format version : Version 1
Format profile : Layer 3
Mode : Joint stereo
Codec ID : 55
Codec ID/Hint : MP3
Duration : 1h 37mn
Bit rate mode : Constant
Bit rate : 112 Kbps
Channel(s) : 2 channels
Sampling rate : 44.1 KHz
Compression mode : Lossy
Stream size : 78.0 MiB (11%)
Alignment : Split accross interleaves
Interleave, duration : 80 ms (2.00 video frames)
Interleave, preload duration : 500 ms
Writing library : LAME3.97


Posted Image

Please Login or Register to see this Hidden Content

Posted Image

Edited by pparadiso, 03 December 2012 - 09:58.


Thanked by 1 Member:
drakun



0 user(s) are reading this topic

0 members, 0 guests, 0 anonymous users