Jump to content

Dobrodošli na Balkandownload.org
Tražite domaće knjige, exyu magazine, sinhronizirane crtane filmove, PC i ostale igre, strane i domaće filmove, dokumentarce, stranu i domaću muziku, itd. ? Ne morate tražiti dalje jer sve ćete to naći kod nas, uredno postavljeno i spremno za download. Osim toga registracijom možete sudjelovati u raznim postojećim temama na forumu, otvarati nove teme, sudjelovati u chatu i još mnogo toga. Ako već imaš otvoren račun, logiraj se ovde ,a ako želiš saznati zašto smo najbolji otvori novi račun i uverite se sami :)
Photo

Ritam Rock Plemena - Od Uragana Do Urbana (2005)


  • Please log in to reply
No replies to this topic

#1
pparadiso

pparadiso

    Advanced Member

  • Members
  • PipPipPip
  • 817 posts
  • 280 thanks
Ritam Rock Plemena - Od Uragana Do Urbana (2005)

Posted Image

Dokumentarac reditelja Bernardina Modrica koji govori o rok-sceni Rijeke od sezdesetih godina do danasnjih dana, kako iz ugla samih ucesnika, tako i iz ugla poznatih rok-kriticara (pokojni Darko Glavan). Kombinujuci dokumentarne snimke sa svedocenjem samih ucesnika, film predstavlja jednu od najzanimljivijih scena u nekadasnjoj Jugoslaviji . Razdobje od vremena Parafa, Termita, Mrtvog kanala, Laufera, Grca, Grada, Denis i Denis, Xenije, Ogledala, Transmisije, Regoca, VEPM, Leta 3 do danasnjih dana i grupa kao sto su Father, ManDrill i Metrobolik.
Generacijski tandem, reditelj Bernardin Modric i scenarista Koraljko Pasaric, pred kamere su doveli tridesetak kljucnih ucesnika rijecke rock scene u posljednjih 40 godina, medju kojima su i svima poznati Mrle i Prlja iz Leta 3, Damir Urban, Elvis Stanic, Vava Simcic, Dejan Skaljac, bracni par Cabrijan, Zoran Stajduhar Zoff, Goran Lisica Fox kao i clanovi grupa Termiti, Parafi i Uragani. "Ritam rock plemena" pokazuje kako Rijeka ima rockersku dusu i bogati kontinuirani muzicki zivot dug dobrih cetrdeset godina.
Dobar polozaj i dotok informacija sa Zapada sredinom sedamdesetih, u vreme radjanja punk pokreta u SAD-u i Engleskoj, dobri kontakti s jakom ljubljanskom scenom i, naravno, talenat i entuzijazam mladih ljudi (ne samo muzicara), uz bogat drustveni i politicki background tog vremena rezultirali su jednom od najzanimljivijih rock i pop kulturnih scena u ovom delu Europe.

Posted Image

Format : AVI
Format/Info : Audio Video Interleave
File size : 281 MiB
Duration : 1h 25mn
Overall bit rate : 459 Kbps
Writing application : MEncoder SVN-r30881(20100311-gcc4.3.3)
Writing library : MPlayer

Video
ID : 0
Format : MPEG-4 Visual
Format profile : Advanced [email protected]
Format settings, BVOP : 2
Format settings, QPel : No
Format settings, GMC : No warppoints
Format settings, Matrix : Default (H.263)
Codec ID : XVID
Codec ID/Hint : XviD
Duration : 1h 25mn
Bit rate : 384 Kbps
Width : 320 pixels
Height : 240 pixels
Display aspect ratio : 4:3
Original display aspect ratio : 4:3
Frame rate : 18.000 fps
Color space : YUV
Chroma subsampling : 4:2:0
Bit depth : 8 bits
Scan type : Progressive
Compression mode : Lossy
Bits/(Pixel*Frame) : 0.278
Stream size : 235 MiB (84%)
Writing library : XviD 1.2.1 (UTC 2008-12-04)

Audio
ID : 1
Format : MPEG Audio
Format version : Version 2
Format profile : Layer 3
Mode : Joint stereo
Mode extension : MS Stereo
Codec ID : 55
Codec ID/Hint : MP3
Duration : 1h 25mn
Bit rate mode : Constant
Bit rate : 64.0 Kbps
Channel(s) : 2 channels
Sampling rate : 22.05 KHz
Compression mode : Lossy
Delay relative to video : 56ms
Stream size : 39.1 MiB (14%)
Alignment : Aligned on interleaves
Interleave, duration : 26 ms (0.47 video frame)
Interleave, preload duration : 522 ms
Writing library : LAME3.98


Posted Image

Please Login or Register to see this Hidden Content

Posted Image

Edited by pparadiso, 03 December 2012 - 10:13.


Thanked by 1 Member:
gjuro76



0 user(s) are reading this topic

0 members, 0 guests, 0 anonymous users