Jump to content

Dobrodošli na Balkandownload.org
Tražite domaće knjige, exyu magazine, sinhronizirane crtane filmove, PC i ostale igre, strane i domaće filmove, dokumentarce, stranu i domaću muziku, itd. ? Ne morate tražiti dalje jer sve ćete to naći kod nas, uredno postavljeno i spremno za download. Osim toga registracijom možete sudjelovati u raznim postojećim temama na forumu, otvarati nove teme, sudjelovati u chatu i još mnogo toga. Ako već imaš otvoren račun, logiraj se ovde ,a ako želiš saznati zašto smo najbolji otvori novi račun i uverite se sami :)

Lifted (2005)

  • Please log in to reply
No replies to this topic



    Advanced Member

  • Members
  • PipPipPip
  • 817 posts
  • 206 thanks
Lifted (2005)

Posted Image

"Lifted" is a 2006 Pixar computer-animated short film directed by Gary Rydstrom. This is the first film directed by Rydstrom, a seven-time Academy Award winning sound editor and mixer.
The film was released theatrically with Pixar's Ratatouille (June 29, 2007). The short also received a sneak peek at The 42nd Chicago International Film Festival.
It was the last Pixar short to be released a year before a feature film was released until "La Luna".

Directed: Gary Rydstrom
Produced: Katherine Sarafian
Written: Gary Rydstrom
Music: Michael Giacchino
Editing: Steve Bloom
Studio Pixar
Distributed: Walt Disney Pictures
Running time: 5 minutes
Country: United States


A young alien, Stu, is inside a spaceship taking an examination in abduction. He must snatch a sleeping farmer named Ernie (who bears a striking resemblance to Linguini, the main human protagonist from Ratatouille) under the watchful eye of his impassive examiner, a gelatinous blob named Mr. B.[2] Working from memory, Stu is expected to use an array of thousands of unlabeled toggle switches for this purpose, and Mr. B gives no hints of which one(s) to use.

Stu's hesitant flicks of the switches turn out to be wrong, causing Ernie to bump into the walls and ceiling but not waking him up. Frustrated, Stu yells and swipes randomly at the array; Ernie bounces crazily around the room like a pinball, knocking over the furniture in the process. Eventually, after checking his notes, Stu does succeed in maneuvering Ernie out the window and up into the ship, but he shuts off the tractor beam without closing the cargo hatch. As Ernie plummets toward the ground, Mr. B takes over and catches him, then works the switches with incredible speed to put him back in his bed and clean up the mess Stu made.

Ashamed over his failure, Stu starts whimpering and tries to hold back his tears. Mr. B generously allows him to launch the spaceship for the trip home. Stu cheerfully grabs the steering yoke and begins to maneuver; a moment later it slams to the ground, crushing Ernie's house. When it lifts off, its underside is covered with dirt and debris and nothing is left of the house except a tall pillar of dirt in the center of a crater, cut out by the open cargo hatch. Atop this, Ernie is still sound asleep in bed.

As the end credits run, the sound of Ernie's alarm clock is heard, followed by his yawn, a scream, and a thud - he has fallen into the crater.

Posted Image

Format : AVI
Format/Info : Audio Video Interleave
File size : 39.7 MiB
Duration : 4mn 49s
Overall bit rate : 1 150 Kbps
Writing application : Nandub v1.0rc2
Writing library : Nandub build 1852/release

ID : 0
Format : MPEG-4 Visual
Format profile : Advanced [email protected]
Format settings, BVOP : 2
Format settings, QPel : No
Format settings, GMC : No warppoints
Format settings, Matrix : Default (H.263)
Muxing mode : Packed bitstream
Codec ID : XVID
Codec ID/Hint : XviD
Duration : 4mn 49s
Bit rate : 758 Kbps
Width : 672 pixels
Height : 352 pixels
Display aspect ratio : 1.909
Frame rate : 25.000 fps
Color space : YUV
Chroma subsampling : 4:2:0
Bit depth : 8 bits
Scan type : Progressive
Compression mode : Lossy
Bits/(Pixel*Frame) : 0.128
Stream size : 26.2 MiB (66%)
Writing library : XviD 1.1.2 (UTC 2006-11-01)

ID : 1
Format : AC-3
Format/Info : Audio Coding 3
Mode extension : CM (complete main)
Format settings, Endianness : Big
Codec ID : 2000
Duration : 4mn 49s
Bit rate mode : Constant
Bit rate : 384 Kbps
Channel(s) : 6 channels
Channel positions : Front: L C R, Side: L R, LFE
Sampling rate : 48.0 KHz
Bit depth : 16 bits
Compression mode : Lossy
Stream size : 13.3 MiB (33%)
Alignment : Aligned on interleaves
Interleave, duration : 64 ms (1.60 video frames)
Interleave, preload duration : 64 ms

Posted Image

Please Login or Register to see this Hidden Content

Posted Image

0 user(s) are reading this topic

0 members, 0 guests, 0 anonymous users