Jump to content

Dobrodošli na Balkandownload.org
Tražite domaće knjige, exyu magazine, sinhronizirane crtane filmove, PC i ostale igre, strane i domaće filmove, dokumentarce, stranu i domaću muziku, itd. ? Ne morate tražiti dalje jer sve ćete to naći kod nas, uredno postavljeno i spremno za download. Osim toga registracijom možete sudjelovati u raznim postojećim temama na forumu, otvarati nove teme, sudjelovati u chatu i još mnogo toga. Ako već imaš otvoren račun, logiraj se ovde ,a ako želiš saznati zašto smo najbolji otvori novi račun i uverite se sami :)
Photo

Poslednji krug u Monci (1989)


3 replies to this topic

#1
Kokis

Kokis

    Advanced Member

  • Members
  • PipPipPip
  • 109 posts
  • 951 thanks

Poslednji krug u Monci (1989)

 

p.png

 
 

Rezija: Aleksandar Boskovic

Uloge: Dragan Nikolic, Vesna Stanojevic, Danilo Bata Stojkovic, Predrag Ejdus, Josif Tatic, Dragan Maksimovic, Goran Sultanovic, Olivera Markovic, Sanja Radmilovic, Danilo Lazovic, Miodrag Krstovic, Branko Cvejic, Dusica Zegarac, Petar Kralj, Mihajlo-Bata Paskaljevic…

Opis: Prica o autsajderu koji je sedam godina proveo u zatvoru zbog pljacke. Veciti pobunjenik, nezadovoljan sistemom i ljudima koji ga okruzuju, zeli da uspostavi put sopstvene pravde. Kao clan Beogradske mafije, posle jos jedne neuspesne pljacke, zbog izdaje, ponovo je u zatvoru. Uspevsi da pobegne, prinudjen je da napusti zemlju i jedine dve osobe koje ga vole, devojku i majku. Odlazi u Italiju i nakon uspesne osvete postaje sef Jugoslovenskih mafijasa u celoj Italiji. Najzad je nasao svoj put pravde, slave i bogatstva, ali ne i ljubavi. To je jedino sto ga ceka u Beogradu. Upravo je zavrsio veliki posao sa drugom za trke u Monci. Medjutim, on nece moci da vidi poslednji krug u Monci…

 
 

Please Login or Register to see this Hidden Content

 
 

Screens

 
 

poslednjikrugumonci1989-.jpg

 
 

Download

 
 



Thanked by 42 Members:
kgrn , musicbox , GORANJ79 , Looper321 , o'fallon , mexi1 , sturm , nikolasampanjac , Bontonko , natsu996 , james12320 , DonutWolf , Obelix1969 , babr , zgombic , artcamora , milospinkfloyd , Stefi_1997 , student2016 , nikola kojovic , Tresla1408 , nikolanowi17 , siljo , Mrkiboy , miliakademac , furolin , Don Keno , salgija , draguljce86 , nikolabojovic , trifun73 , dzovica , ITengineer , ConQueRors905 , vlatkis , dm88bg , martin mcfly , kiky18 , dijablo , rade51 , jasminmagic , mamut428

#2
Zoran_

Zoran_

    Gold Member

  • VIP
  • PipPipPipPipPipPip
  • 5,988 posts
  • 149563 thanks
Poslednji krug u Monci (1989)
 
 
M2UPgyK.png
 
Su6Ksi6.jpg
 

Please Login or Register to see this Hidden Content

 
 
Prica o autsajderu koji je sedam godina proveo u zatvoru zbog pljacke. Veciti pobunjenik, nezadovoljan sistemom i ljudima koji ga okruzuju, zeli da uspostavi put sopstvene pravde. Kao clan beogradske mafije, posle jos jedne neuspesne pljacke, zbog izdaje, ponovo je u zatvoru. Uspevsi da pobegne, prinudjen je da napusti zemlju i jedine dve osobe koje ga vole, devojku i majku. Odlazi u Italiju i, nakon uspesne osvete, postaje sef jugoslovenskih mafijasa u celoj Italiji. Najzad je nasao svoj put pravde, slave i bogatstva, ali ne i ljubavi. To je jedino sto ga ceka u Beogradu. Upravo je zavrsio veliki posao sa drugom za trke u Monci. Medjutim, on nece videti poslednji krug u Monci ...
 
q4xeyugfm6c.png
 
v9dyfHS.gif
 
779w44U.jpg
 
Oets6ur.gif
 
Poslednji krug u Monci (1989) HDRip.x264.mkv 
 
SFYUbuP.jpg
 
Hidden Content
You'll be able to see the hidden content once you thank this post.

Molbe za moje linkove, šaljite na PP.

 

Zabranjeno je kopiranje mojih linkova,reupload i postavljanje na druge forume!


Thanked by 70 Members:
Nenad71088 , kgrn , andra petak , vlast69 , goransokolovic.fr , rade.com , GORANJ79 , bataraka , Looper321 , djuradj86 , lestrejndz , nenadgrujic , Milenaa94 , dgema82 , almax , o'fallon , lilke , bond2019 , akkovacevic , Nenad007 , Verdeja , sanjaradojevic , atila615 , fladoje , atosbro , sturm , b50andi , nikolasampanjac , djomla555 , nikolaradis , Gudalo , skrbiczoran , Bontonko , natsu996 , sloznabraca , james12320 , Obelix1969 , chefko , babr , johnnyl , zgombic , kockari , damirprc , stefanv990 , Inche , alexxxxa , zoran48 , milena.dj , Cocco Bill , artcamora , ring0id , keops87 , johnrangel25 , nireB , milospinkfloyd , Chika_Miki , Joca73 , pexon97 , tejicma , NalleNina , danep , barutan93 , salgija , Alamo74 , student2016 , konami , Zelenac1 , kapetanovici , dzogani , lazicseno

#3
Zoran_

Zoran_

    Gold Member

  • VIP
  • PipPipPipPipPipPip
  • 5,988 posts
  • 149563 thanks
Poslednji krug u Monci (1989)
 
 
M2UPgyK.png
 
Su6Ksi6.jpg
 

Please Login or Register to see this Hidden Content

 
 
Prica o autsajderu koji je sedam godina proveo u zatvoru zbog pljacke. Veciti pobunjenik, nezadovoljan sistemom i ljudima koji ga okruzuju, zeli da uspostavi put sopstvene pravde. Kao clan beogradske mafije, posle jos jedne neuspesne pljacke, zbog izdaje, ponovo je u zatvoru. Uspevsi da pobegne, prinudjen je da napusti zemlju i jedine dve osobe koje ga vole, devojku i majku. Odlazi u Italiju i, nakon uspesne osvete, postaje sef jugoslovenskih mafijasa u celoj Italiji. Najzad je nasao svoj put pravde, slave i bogatstva, ali ne i ljubavi. To je jedino sto ga ceka u Beogradu. Upravo je zavrsio veliki posao sa drugom za trke u Monci. Medjutim, on nece videti poslednji krug u Monci ...
 
v04y3ljb8j0.png
 
khXWzYc.gif
 
DSEUlrw.jpg
 
Oets6ur.gif
 
Poslednji krug u Monci (1989) 720p.HDRip.x264.mkv 
 
SFYUbuP.jpg
 
Hidden Content
You'll be able to see the hidden content once you thank this post.

Molbe za moje linkove, šaljite na PP.

 

Zabranjeno je kopiranje mojih linkova,reupload i postavljanje na druge forume!


Thanked by 99 Members:

#4
Wolf 13

Wolf 13

    Advanced Member

  • Members
  • PipPipPip
  • 426 posts
  • 33537 thanks
Poslednji krug u Monci (1989) DVDrip DD5.1 x264 by Wolf
(MKV)
 
krQU79B.png
 

Please Login or Register to see this Hidden Content

 

General
Unique ID                   : 96888074191471517161148298122232213019 (0x48E3F6DE96C099E43B94A0FCEE862E1B)
Complete name               : Poslednji krug u Monci (1989) DVDrip DD5.1 x264 by Wolf.mkv
Format                      : Matroska
Format version              : Version 4
File size                   : 1.37 GiB
Duration                    : 1 h 46 min
Overall bit rate            : 1 856 kb/s
Encoded date                : UTC 2019-03-02 20:08:59
Writing application         : mkvmerge v31.0.0 ('Dolores In A Shoestand') 64-bit
Writing library             : libebml v1.3.6 + libmatroska v1.4.9 / Lavf58.20.100
 
Video
ID                          : 1
Format                      : AVC
Format/Info                 : Advanced Video Codec
Format profile              : [email protected]
Format settings             : CABAC / 16 Ref Frames
Format settings, CABAC      : Yes
Format settings, ReFrames   : 16 frames
Codec ID                    : V_MPEG4/ISO/AVC
Duration                    : 1 h 45 min
Bit rate                    : 1 600 kb/s
Width                       : 704 pixels
Height                      : 576 pixels
Display aspect ratio        : 16:9
Original display aspect rat : 4:3
Frame rate mode             : Constant
Frame rate                  : 25.000 FPS
Standard                    : PAL
Color space                 : YUV
Chroma subsampling          : 4:2:0
Bit depth                   : 8 bits
Scan type                   : Progressive
Bits/(Pixel*Frame)          : 0.158
Stream size                 : 1.18 GiB (86%)
Title                       : Poslednji krug u Monci (1989)
Writing library             : x264 core 157 r2935 545de2f
Encoding settings           : cabac=1 / ref=16 / deblock=1:-1:-1 / analyse=0x3:0x133 / me=umh / subme=10 / psy=1 / psy_rd=1.00:0.15 / mixed_ref=1 / me_range=24 / chroma_me=1 / trellis=2 / 8x8dct=1 / cqm=0 / deadzone=21,11 / fast_pskip=1 / chroma_qp_offset=-3 / threads=6 / lookahead_threads=1 / sliced_threads=0 / nr=0 / decimate=1 / interlaced=0 / bluray_compat=0 / constrained_intra=0 / bframes=8 / b_pyramid=2 / b_adapt=2 / b_bias=0 / direct=3 / weightb=1 / open_gop=0 / weightp=2 / keyint=250 / keyint_min=25 / scenecut=40 / intra_refresh=0 / rc_lookahead=60 / rc=2pass / mbtree=1 / bitrate=1600 / ratetol=1.0 / qcomp=0.60 / qpmin=0 / qpmax=69 / qpstep=4 / cplxblur=20.0 / qblur=0.5 / vbv_maxrate=300000 / vbv_bufsize=300000 / nal_hrd=none / filler=0 / ip_ratio=1.40 / aq=1:1.00
Language                    : Serbian
Default                     : Yes
Forced                      : No
Color range                 : Limited
Color primaries             : BT.601 PAL
Transfer characteristics    : BT.709
Matrix coefficients         : BT.601
 
Audio
ID                          : 2
Format                      : E-AC-3
Format/Info                 : Enhanced AC-3
Commercial name             : Dolby Digital Plus
Codec ID                    : A_EAC3
Duration                    : 1 h 46 min
Bit rate mode               : Constant
Bit rate                    : 256 kb/s
Channel(s)                  : 6 channels
Channel layout              : L R C LFE Ls Rs
Sampling rate               : 48.0 kHz
Frame rate                  : 31.250 FPS (1536 SPF)
Compression mode            : Lossy
Delay relative to video     : -5 ms
Stream size                 : 194 MiB (14%)
Title                       : Poslednji krug u Monci (1989)
Language                    : Serbian
Service kind                : Complete Main
Default                     : Yes
Forced                      : No
 
epYscVA.png
Hidden Content
You'll be able to see the hidden content once you thank this post.
 
RSCJ5rI.png
pC5qRoG.jpg


Thanked by 48 Members:
chegi15 , Pera34 , keops87 , zxspectrum , xnoz25 , gdesibre , dupin , bataraka , zlikuvar , Milenaa94 , o'fallon , lilke , Nenad007 , Srećković007 , honor , internetcaffe , neca73 , darkovski , natsu996 , vajtaun , chefko , winer44 , WoodooSale , billypiton , ivory , severing , rile1972 , SaleXieri , milic , spada , goraneo , stefanv990 , totp , bobrock55 , rusko , epikur69 , dule_74st , alexxxxa , Milfir , ss_semi , lika , bajint , Biotloneta , retar , icaleptir , aca72 , beograd1960' , darko1974



0 user(s) are reading this topic

0 members, 0 guests, 0 anonymous users