Jump to content

Dobrodošli na Balkandownload.org
Tražite domaće knjige, exyu magazine, sinhronizirane crtane filmove, PC i ostale igre, strane i domaće filmove, dokumentarce, stranu i domaću muziku, itd. ? Ne morate tražiti dalje jer sve ćete to naći kod nas, uredno postavljeno i spremno za download. Osim toga registracijom možete sudjelovati u raznim postojećim temama na forumu, otvarati nove teme, sudjelovati u chatu i još mnogo toga. Ako već imaš otvoren račun, logiraj se ovde ,a ako želiš saznati zašto smo najbolji otvori novi račun i uverite se sami :)
Photo

Velika frka (1992)


2 replies to this topic

#1
Kokis

Kokis

    Advanced Member

  • Members
  • PipPipPip
  • 109 posts
  • 951 thanks

Velika frka (1992)

 

rzixYOA.png

 
 

Rezija: Milan Jelic

Uloge: Dragan Nikolic, Radmila Zivkovic, Olivera Markovic, Olivera Jezina, Andrijana Videnovic, Milivoje Tomic, Nebojsa Bakocevic, Ksenija Janicijevic, Jovan Janicijevic Burdus, Velimir Bata Zivojinovic, Vladimir Perisic, Igor Pervic, Goran Radakovic, Tanja Kecojevic, Vuk Pavlovic…

Opis: Ceda je neugledni sluzbenik kojemu nista ne polazi od ruke. Iako dobrocudan, svi ga neprestano maltretiraju stalno izmisljajuci nove zadatke. Tako on seta pudlicu, kuva kafu za drustvo pokerasa svoje supruge i svasta drugo. Uz sve to, Ceda je i obavezni pratilac svojoj tasti koja ide na godisnji odmor u Toplice. Svoju ulogu ne odradi do kraja zato sto se zbog posla mora vratiti ranije. Tada pocinju pravi problemi jer je u kuci vrlo neuobicajeno stanje: puna je nepoznatih, izazovnih devojaka, lokalnih nasilnika i drugih raznih sumnjivih osoba, a Ceda mora smisliti nacin kako se iz svega izvuci bez vece stete…

 
 

Please Login or Register to see this Hidden Content



Thanked by 32 Members:
NIKOLA1986NIS , req013 , Njegoš , Stefi_1997 , grobaristotalitare , Dijana1974 , biljanativ , felicx , Vule83 , iggy973 , amiga500emulator1 , [email protected] , goransd , banchi , buici , DEJO86 , ptar69 , brzi1978 , Predrag94 , draganbauk , mirko098123 , rikic , DjMrki , durant212 , talicni , drugi5 , Zelenac1 , AhilZg , kosarkas014 , Tanjiskas , atilaF , nikolabns

#2
Wolf 13

Wolf 13

    Advanced Member

  • Members
  • PipPipPip
  • 426 posts
  • 33604 thanks
Velika frka (1992) DVDrip AC3 5.1 x264 by Wolf
(MKV)
 
9eHnAR7.jpg
 

Please Login or Register to see this Hidden Content

 

General
Unique ID                   : 292651480300480955829418261510146495355 (0xDC2A9FFAA02E260CFB21685EED34137B)
Complete name               : Velika frka (1992) DVDrip AC3 5.1 x264 by Wolf.mkv
Format                      : Matroska
Format version              : Version 4
File size                   : 1.02 GiB
Duration                    : 1 h 23 min
Overall bit rate            : 1 756 kb/s
Encoded date                : UTC 2019-01-17 15:17:46
Writing application         : mkvmerge v30.1.0 ('Forever And More') 64-bit
Writing library             : libebml v1.3.6 + libmatroska v1.4.9 / Lavf58.20.100
 
Video
ID                          : 1
Format                      : AVC
Format/Info                 : Advanced Video Codec
Format profile              : [email protected]
Format settings             : CABAC / 8 Ref Frames
Format settings, CABAC      : Yes
Format settings, ReFrames   : 8 frames
Codec ID                    : V_MPEG4/ISO/AVC
Duration                    : 1 h 23 min
Bit rate                    : 1 500 kb/s
Width                       : 700 pixels
Height                      : 576 pixels
Display aspect ratio        : 16:9
Original display aspect rat : 1.296
Frame rate mode             : Constant
Frame rate                  : 25.000 FPS
Color space                 : YUV
Chroma subsampling          : 4:2:0
Bit depth                   : 8 bits
Scan type                   : Progressive
Bits/(Pixel*Frame)          : 0.149
Stream size                 : 891 MiB (85%)
Title                       : Velika frka (1992)
Writing library             : x264 core 157 r2935 545de2f
Encoding settings           : cabac=1 / ref=8 / deblock=1:-1:-1 / analyse=0x3:0x133 / me=umh / subme=9 / psy=1 / psy_rd=1.00:0.15 / mixed_ref=1 / me_range=16 / chroma_me=1 / trellis=2 / 8x8dct=1 / cqm=0 / deadzone=21,11 / fast_pskip=1 / chroma_qp_offset=-3 / threads=6 / lookahead_threads=1 / sliced_threads=0 / nr=0 / decimate=1 / interlaced=0 / bluray_compat=0 / constrained_intra=0 / bframes=3 / b_pyramid=2 / b_adapt=2 / b_bias=0 / direct=3 / weightb=1 / open_gop=0 / weightp=2 / keyint=250 / keyint_min=25 / scenecut=40 / intra_refresh=0 / rc_lookahead=60 / rc=2pass / mbtree=1 / bitrate=1500 / ratetol=1.0 / qcomp=0.60 / qpmin=0 / qpmax=69 / qpstep=4 / cplxblur=20.0 / qblur=0.5 / vbv_maxrate=300000 / vbv_bufsize=300000 / nal_hrd=none / filler=0 / ip_ratio=1.40 / aq=1:1.00
Language                    : Serbian
Default                     : Yes
Forced                      : No
Color range                 : Limited
Color primaries             : BT.601 PAL
Transfer characteristics    : BT.709
Matrix coefficients         : BT.601
 
Audio
ID                          : 2
Format                      : E-AC-3
Format/Info                 : Enhanced AC-3
Commercial name             : Dolby Digital Plus
Codec ID                    : A_EAC3
Duration                    : 1 h 23 min
Bit rate mode               : Constant
Bit rate                    : 256 kb/s
Channel(s)                  : 6 channels
Channel layout              : L R C LFE Ls Rs
Sampling rate               : 48.0 kHz
Frame rate                  : 31.250 FPS (1536 SPF)
Compression mode            : Lossy
Stream size                 : 152 MiB (15%)
Title                       : Velika frka (1992)
Language                    : Serbian
Service kind                : Complete Main
Default                     : Yes
Forced                      : No
 
epYscVA.png
Hidden Content
You'll be able to see the hidden content once you thank this post.
 
0sW0f9v.png
u6FePDy.jpg

Edited by Wolf 13, 17 January 2019 - 19:16.


Thanked by 95 Members:

#3
Zoran_

Zoran_

    Gold Member

  • VIP
  • PipPipPipPipPipPip
  • 5,990 posts
  • 149760 thanks
Velika frka (1992)
 
 
VWEAQH1.png
 
Su6Ksi6.jpg
 

Please Login or Register to see this Hidden Content

 
Ceda je neugledni sluzbenik kojemu nista ne polazi od ruke. Iako dobrocudan, svi ga neprestano maltretiraju stalno izmisljajuci nove zadatke. Tako on seta pudlicu, kuva kafu za drustvo pokerasa svoje supruge i svasta drugo. Uz sve to, Ceda je i obavezni pratilac svojoj tasti koja ide na godisnji odmor u Toplice. Svoju ulogu ne odradi do kraja zato sto se zbog posla mora vratiti ranije. Tada pocinju pravi problemi jer je u kuci vrlo neuobicajeno stanje: puna je nepoznatih, izazovnih devojaka, lokalnih nasilnika i drugih raznih sumnjivih osoba, a Ceda mora smisliti nacin kako se iz svega izvuci bez vece stete…
 
57otjy64db6.png
 
WbQOOHw.gif
 
zpIk2ad.jpg
 
Oets6ur.gif
 
Velika frka (1992) DVDRip.x264.mkv
 
SFYUbuP.jpg
 
Hidden Content
You'll be able to see the hidden content once you thank this post.

Molbe za moje linkove, šaljite na PP.

 

Zabranjeno je kopiranje mojih linkova,reupload i postavljanje na druge forume!


Thanked by 38 Members:
Kriger1 , megastraus , MacAir , quantrop , kockari , pero362 , goraneo , Zelenac1 , Hummer , req013 , Njegoš , Stefi_1997 , ivory , RADASHIN , ivansmole , rusko , KIXX , mikula11 , nm2015 , Franci , bosnaBosnia , goransokolovic.fr , bobankos , alexxxxa , kapara , katajojic , blauer , mackosopa , Prene , sabor , liquid , lovaccc , rakia1960 , Jokso , ss_semi , beograd1960' , iceman_79 , draganiuss



0 user(s) are reading this topic

0 members, 0 guests, 0 anonymous users