Jump to content

Dobrodošli na Balkandownload.org
Tražite domaće knjige, exyu magazine, sinhronizirane crtane filmove, PC i ostale igre, strane i domaće filmove, dokumentarce, stranu i domaću muziku, itd. ? Ne morate tražiti dalje jer sve ćete to naći kod nas, uredno postavljeno i spremno za download. Osim toga registracijom možete sudjelovati u raznim postojećim temama na forumu, otvarati nove teme, sudjelovati u chatu i još mnogo toga. Ako već imaš otvoren račun, logiraj se ovde ,a ako želiš saznati zašto smo najbolji otvori novi račun i uverite se sami :)
Photo

Mi Nismo Andjeli (Kolekcija 1-3)


6 replies to this topic

#1
Tobacco Road

Tobacco Road

    The Warez GOD

  • Tobacco
  • PipPipPipPipPipPipPipPipPipPip
  • 23,348 posts
  • 995962 thanks
  • Locationscrls
Mi Nismo Andjeli (Kolekcija 1-3) XviD

5092c9a2e157a5xgVcy.jpg

Download - Sva tri dela upakovana zajedno - kombinovani linkovi
 

Please Login or Register to see this Hidden Content


 

 

Kako skinuti nesto sa Balkandownload-a?

www.slideshare.net/bd4yu/kako-skidati-fajlove-sa-balkan-download-a

Kako da pronadjete zeljeni sadrzaj na forumu? 

www.balkandownload.org/topic/40428-kako-pronaci-zeljeni-sadrzaj-na-forumu/

Najmračniji krugovi pakla su rezervisani za one koji u vremenima moralne krize ostanu neutralni i suzdržani -Dante Alighieri


Thanked by 205 Members:

#2
Wolf 13

Wolf 13

    Advanced Member

  • Members
  • PipPipPip
  • 426 posts
  • 33612 thanks
Mi nismo andjeli 2 (2005) DVDrip AC3 5.1 x264 by Wolf
(MKV) HQ
 
AMVX1De.jpg
 

Please Login or Register to see this Hidden Content

 

General
Unique ID                   : 171929719772358339547337340808030746511 (0x815875A5FBF9C3E1557218707576778F)
Complete name               : Mi nismo andjeli 2 (2005) DVDrip AC3 5.1 x264 by Wolf.mkv
Format                      : Matroska
Format version              : Version 4
File size                   : 1.03 GiB
Duration                    : 1 h 23 min
Overall bit rate            : 1 757 kb/s
Encoded date                : UTC 2018-12-19 11:59:52 / UTC 2018-12-19T10:08:40Z
Writing application         : mkvmerge v29.0.0 ('Like It Or Not') 64-bit
Writing library             : libebml v1.3.6 + libmatroska v1.4.9 / Lavf57.7.2
 
Video
ID                          : 1
Format                      : AVC
Format/Info                 : Advanced Video Codec
Format profile              : [email protected]
Format settings             : CABAC / 8 Ref Frames
Format settings, CABAC      : Yes
Format settings, ReFrames   : 8 frames
Codec ID                    : V_MPEG4/ISO/AVC
Duration                    : 1 h 23 min
Bit rate                    : 1 500 kb/s
Width                       : 720 pixels
Height                      : 414 pixels
Display aspect ratio        : 1.85:1
Frame rate mode             : Constant
Frame rate                  : 25.000 FPS
Color space                 : YUV
Chroma subsampling          : 4:2:0
Bit depth                   : 8 bits
Scan type                   : Progressive
Bits/(Pixel*Frame)          : 0.201
Stream size                 : 880 MiB (83%)
Title                       : Mi nismo andjeli 2 (2005)
Writing library             : x264 core 155 r2901 7d0ff22
Encoding settings           : cabac=1 / ref=8 / deblock=1:-1:-1 / analyse=0x3:0x133 / me=umh / subme=9 / psy=1 / psy_rd=1.00:0.15 / mixed_ref=1 / me_range=16 / chroma_me=1 / trellis=2 / 8x8dct=1 / cqm=0 / deadzone=21,11 / fast_pskip=1 / chroma_qp_offset=-3 / threads=6 / lookahead_threads=1 / sliced_threads=0 / nr=0 / decimate=1 / interlaced=0 / bluray_compat=0 / constrained_intra=0 / bframes=3 / b_pyramid=2 / b_adapt=2 / b_bias=0 / direct=3 / weightb=1 / open_gop=0 / weightp=2 / keyint=250 / keyint_min=25 / scenecut=40 / intra_refresh=0 / rc_lookahead=60 / rc=2pass / mbtree=1 / bitrate=1500 / ratetol=1.0 / qcomp=0.60 / qpmin=0 / qpmax=69 / qpstep=4 / cplxblur=20.0 / qblur=0.5 / vbv_maxrate=300000 / vbv_bufsize=300000 / nal_hrd=none / filler=0 / ip_ratio=1.40 / aq=1:1.00
Language                    : Serbian
Default                     : Yes
Forced                      : No
Color range                 : Limited
Color primaries             : BT.601 PAL
Transfer characteristics    : BT.709
Matrix coefficients         : BT.601
Statistics Tags Issue       : mkvmerge v29.0.0 ('Like It Or Not') 64-bit 2018-12-19 11:59:52 / mkvmerge v29.0.0 ('Like It Or Not') 64-bit 2018-12-19 11:59:52 / UTC 2018-12-19T10:08:40Z
FromStats_BitRate           : 1499709
FromStats_Duration          : 01:23:50.960000000
FromStats_FrameCount        : 125774
FromStats_StreamSize        : 943122531
 
Audio
ID                          : 2
Format                      : AC-3
Format/Info                 : Audio Coding 3
Commercial name             : Dolby Digital
Codec ID                    : A_AC3
Duration                    : 1 h 23 min
Bit rate mode               : Constant
Bit rate                    : 256 kb/s
Channel(s)                  : 6 channels
Channel layout              : L R C LFE Ls Rs
Sampling rate               : 48.0 kHz
Frame rate                  : 31.250 FPS (1536 SPF)
Bit depth                   : 16 bits
Compression mode            : Lossy
Delay relative to video     : -40 ms
Stream size                 : 154 MiB (15%)
Title                       : Mi nismo andjeli 2 (2005)
Language                    : Serbian
Service kind                : Complete Main
Default                     : Yes
Forced                      : No
Statistics Tags Issue       : mkvmerge v29.0.0 ('Like It Or Not') 64-bit 2018-12-19 11:59:52 / mkvmerge v29.0.0 ('Like It Or Not') 64-bit 2018-12-19 11:59:52 / UTC 2018-12-19T10:08:40Z
FromStats_BitRate           : 256000
FromStats_Duration          : 01:23:50.944000000
FromStats_FrameCount        : 157217
FromStats_StreamSize        : 160990208
 
epYscVA.png
Hidden Content
You'll be able to see the hidden content once you thank this post.
 
6MSYw3H.png
v9gVdG4.jpg

Edited by Wolf 13, 19 December 2018 - 14:47.


Thanked by 168 Members:

#3
Wolf 13

Wolf 13

    Advanced Member

  • Members
  • PipPipPip
  • 426 posts
  • 33612 thanks
Mi nismo andjeli (1992) DVDrip AC3 5.1 x264 by Wolf
(MKV)
 
ZifUlEM.jpg
 

Please Login or Register to see this Hidden Content

 

General
Unique ID                   : 224366249876526669503667726161335281435 (0xA8CB5E2FA883001A6C8CF64B893BE71B)
Complete name               : Mi nismo andjeli (1992) DVDrip AC3 5.1 x264 by Wolf.mkv
Format                      : Matroska
Format version              : Version 4
File size                   : 1.23 GiB
Duration                    : 1 h 40 min
Overall bit rate            : 1 758 kb/s
Encoded date                : UTC 2018-12-18 17:42:29 / UTC 2018-12-18T11:21:38Z
Writing application         : mkvmerge v29.0.0 ('Like It Or Not') 64-bit
Writing library             : libebml v1.3.6 + libmatroska v1.4.9 / Lavf57.7.2
 
Video
ID                          : 1
Format                      : AVC
Format/Info                 : Advanced Video Codec
Format profile              : [email protected]
Format settings             : CABAC / 8 Ref Frames
Format settings, CABAC      : Yes
Format settings, ReFrames   : 8 frames
Codec ID                    : V_MPEG4/ISO/AVC
Duration                    : 1 h 40 min
Bit rate                    : 1 500 kb/s
Width                       : 700 pixels
Height                      : 572 pixels
Display aspect ratio        : 16:9
Original display aspect rat : 16:9
Frame rate mode             : Constant
Frame rate                  : 25.000 FPS
Color space                 : YUV
Chroma subsampling          : 4:2:0
Bit depth                   : 8 bits
Scan type                   : Progressive
Bits/(Pixel*Frame)          : 0.150
Stream size                 : 1.03 GiB (83%)
Title                       : Mi nismo andjeli (1992)
Writing library             : x264 core 155 r2901 7d0ff22
Encoding settings           : cabac=1 / ref=8 / deblock=1:-1:-1 / analyse=0x3:0x133 / me=umh / subme=9 / psy=1 / psy_rd=1.00:0.15 / mixed_ref=1 / me_range=16 / chroma_me=1 / trellis=2 / 8x8dct=1 / cqm=0 / deadzone=21,11 / fast_pskip=1 / chroma_qp_offset=-3 / threads=6 / lookahead_threads=1 / sliced_threads=0 / nr=0 / decimate=1 / interlaced=0 / bluray_compat=0 / constrained_intra=0 / bframes=3 / b_pyramid=2 / b_adapt=2 / b_bias=0 / direct=3 / weightb=1 / open_gop=0 / weightp=2 / keyint=250 / keyint_min=25 / scenecut=40 / intra_refresh=0 / rc_lookahead=60 / rc=2pass / mbtree=1 / bitrate=1500 / ratetol=1.0 / qcomp=0.60 / qpmin=0 / qpmax=69 / qpstep=4 / cplxblur=20.0 / qblur=0.5 / vbv_maxrate=300000 / vbv_bufsize=300000 / nal_hrd=none / filler=0 / ip_ratio=1.40 / aq=1:1.00
Language                    : Serbian
Default                     : Yes
Forced                      : No
Color range                 : Limited
Color primaries             : BT.601 PAL
Transfer characteristics    : BT.709
Matrix coefficients         : BT.601
Statistics Tags Issue       : mkvmerge v29.0.0 ('Like It Or Not') 64-bit 2018-12-18 17:42:29 / mkvmerge v29.0.0 ('Like It Or Not') 64-bit 2018-12-18 17:42:29 / UTC 2018-12-18T11:21:38Z
FromStats_BitRate           : 1499992
FromStats_Duration          : 01:40:15.080000000
FromStats_FrameCount        : 150360
FromStats_StreamSize        : 1127821643
 
Audio
ID                          : 2
Format                      : E-AC-3
Format/Info                 : Enhanced AC-3
Commercial name             : Dolby Digital Plus
Codec ID                    : A_EAC3
Duration                    : 1 h 40 min
Bit rate mode               : Constant
Bit rate                    : 256 kb/s
Channel(s)                  : 6 channels
Channel layout              : L R C LFE Ls Rs
Sampling rate               : 48.0 kHz
Frame rate                  : 31.250 FPS (1536 SPF)
Compression mode            : Lossy
Stream size                 : 184 MiB (15%)
Title                       : Mi nismo andjeli (1992)
Language                    : Serbian
Service kind                : Complete Main
Default                     : Yes
Forced                      : No
Statistics Tags Issue       : mkvmerge v29.0.0 ('Like It Or Not') 64-bit 2018-12-18 17:42:29 / mkvmerge v29.0.0 ('Like It Or Not') 64-bit 2018-12-18 17:42:29 / UTC 2018-12-18T11:21:38Z
FromStats_BitRate           : 256000
FromStats_Duration          : 01:40:14.976000000
FromStats_FrameCount        : 187968
FromStats_StreamSize        : 192479232
 
epYscVA.png
Hidden Content
You'll be able to see the hidden content once you thank this post.
 
Xe3Mme3.png
h1rRqyJ.jpg

Edited by Wolf 13, 19 December 2018 - 18:32.


Thanked by 198 Members:

#4
nikolakralj100

nikolakralj100

    Advanced Member

  • Members
  • PipPipPip
  • 346 posts
  • 20626 thanks

Mi nismo andjeli - 2 (2005) DVDr

 

1z1CZVp.jpg

 

al9nPVu.jpg

 

Hidden Content
You'll be able to see the hidden content once you thank this post.


Thanked by 99 Members:

#5
Zoran_

Zoran_

    Gold Member

  • VIP
  • PipPipPipPipPipPip
  • 5,990 posts
  • 149801 thanks
Mi nismo andjeli (1992) 
 
 
Minismoandjeli1992.png
 
Su6Ksi6.jpg
 

Please Login or Register to see this Hidden Content

 
Kako osvojiti neosvojivu tvrdjavu, pravog muskarca? Kako da skrenete njegov pogled na sebe? Kako ga poniziti? Kako ga zgaziti? Odgovor: Uspecete ako ostanete u drugom stanju. U ovoj kultnoj komediji, prvencu koji je proslavio Srdjana Dragojevica, Nikola, glavni beogradski plejboj, postaje zrtva-ulog uopkladi koju sprovode dokoni Djavo i Andjeo. Nikola je ostavio u drugom stanju devojku koje se cak i ne seca. Marina, iako mlada i nimalo nikolin tip, ima nepobedivo oruzje - najbolju drugaricu Bubu koja preuzima na sebe misiju da se Nikola zaljubi u Marinu. Kultni film tada mladog reditelja, deset godina kasnije dozivljava i nastavak, a mozete proveriti zasto vreme nije naudilo kultnom statusu jednoj od nasih najboljih savremenih komedija.
 
Minismoandjeli1992.avi.gif
 
Minismoandjeli1992.avi.jpg
 
Oets6ur.gif
 
Mi nismo andjeli (1992)  DVDRip avi
 
SFYUbuP.jpg
 
Hidden Content
You'll be able to see the hidden content once you thank this post.

Molbe za moje linkove, šaljite na PP.

 

Zabranjeno je kopiranje mojih linkova,reupload i postavljanje na druge forume!


Thanked by 96 Members:

#6
Zoran_

Zoran_

    Gold Member

  • VIP
  • PipPipPipPipPipPip
  • 5,990 posts
  • 149801 thanks
Mi nismo andjeli 2 (2005)
 
 
Minismoandjeli22005.png
 
Su6Ksi6.jpg
 

Please Login or Register to see this Hidden Content

 
U nastavku kultnog filma upoznajemo Nikolinu cerku - Sofiju, devojcicu od 15 godina. Sofija pocinje da pokazuje interesovanje za suprotni pol, dok Nikola, patoloski ljubomoran otac, ulaze maksimalne napore da svoju jedinicu zastiti od bilo kakvog muskog uticaja i ne birajuci sredstva eliminise sve potencijalne kandidate. 
 
Minismoandjeli22005.avi.gif
 
Minismoandjeli22005.avi.jpg
 
Oets6ur.gif
 
Mi nismo andjeli 2 (2005) DVDRip avi
 
SFYUbuP.jpg
 
Hidden Content
You'll be able to see the hidden content once you thank this post.

Molbe za moje linkove, šaljite na PP.

 

Zabranjeno je kopiranje mojih linkova,reupload i postavljanje na druge forume!


Thanked by 61 Members:
blacksad011 , radle , sikavica2018 , lazicseno , dejanvasiljevic76 , Nenad71088 , burgo , Boriz Grozni , mackosopa , shadowmaker , Mihailo123 , bane007 , DraxTheFax , Auntiffr , tesseka48 , pobesnela , ss_semi , sea-hag , hobotnica , borko74 , worldisasleep , cldarko , milewap , vlajko1980 , Jokeratomic , 8888 , Tijana1803 , dgema82 , zorandju , Bontonko , eLeSDe87 , mciplic , vajtaun , chefko , Nenadi , GOOOYA , WoodooSale , Bogdan2011 , macessatt , kanki , ina12 , toki , tonisamja , Attila , MiraDr , Omina Tricko , kituminaya , mario77 , edvpetre , tejicma , kruno1708 , fanSte_97 , Flippy , sipke10 , pluriel12309 , icaleptir , cigoyner , Alamo74 , branislav94 , Gorolomac , aca72

#7
Zoran_

Zoran_

    Gold Member

  • VIP
  • PipPipPipPipPipPip
  • 5,990 posts
  • 149801 thanks
Mi nismo andjeli 3 (2006) - Rock'n'Roll uzvraca udarac (2006)
 
 
Minismoandjeli32006.png
 
Su6Ksi6.jpg
 

Please Login or Register to see this Hidden Content

 
Borko Pavlovic Dorijan je sredinom sedamdesetih godina prodao dusu Djavolu kako bi u socijalistickoj Jugoslaviji, postao rok zvezda i stekao bogatstvo i slavu. Ali u danasnjoj Srbiji uspeh i slava vise ne zive u rokenrolu. To zna najbolje Marko, nekadasnji Dorijanov obozavalac koji ga se odrekao kada je njegov idol presao u turbo folk. Kako su Andjeo i Djavo uvek u akciji tako Markova velika zelja da dobije Telekaster gitaru dovodi do toga da i on proda dusu Djavolu…
 
MiNismoAndjeli32006.avi.gif
 
MiNismoAndjeli32006.avi.jpg
 
Oets6ur.gif
 
Mi nismo andjeli 3 2006 A3 - Rock'n'Roll uzvraca udarac (2006) DVDRip avi
 
SFYUbuP.jpg
 
Hidden Content
You'll be able to see the hidden content once you thank this post.

Molbe za moje linkove, šaljite na PP.

 

Zabranjeno je kopiranje mojih linkova,reupload i postavljanje na druge forume!


Thanked by 86 Members:



0 user(s) are reading this topic

0 members, 0 guests, 0 anonymous users