Jump to content

Dobrodošli na Balkandownload.org
Tražite domaće knjige, exyu magazine, sinhronizirane crtane filmove, PC i ostale igre, strane i domaće filmove, dokumentarce, stranu i domaću muziku, itd. ? Ne morate tražiti dalje jer sve ćete to naći kod nas, uredno postavljeno i spremno za download. Osim toga registracijom možete sudjelovati u raznim postojećim temama na forumu, otvarati nove teme, sudjelovati u chatu i još mnogo toga. Ako već imaš otvoren račun, logiraj se ovde ,a ako želiš saznati zašto smo najbolji otvori novi račun i uverite se sami :)
Photo

Muzika sa Jasibare (2011)


  • Please log in to reply
No replies to this topic

#1
pparadiso

pparadiso

    Advanced Member

  • Members
  • PipPipPip
  • 817 posts
  • 284 thanks
Muzika sa Jasibare (2011)

Posted Image

Film je prikazan na festivalu dokumentarnog rock filma (D.O.R.F.) 2012 godine. Autor postavlja pitanje na koje odgovara neko od likova koji jesu ili su bili aktivni na subotickoj rock sceni. Zatim taj lik postavlja pitanje na koje odgovara treci lik, onda on postavlja pitanje i tako taj perpetuum mobile traje svojih sat i kusur minuta dok neko ne postavi pitanje: „Kada ce ovaj film zavrsiti?“ da bi onda autor (pretpostavljam da je to on) rekao „Pa otprilike sada!“ i tu je kraj. Film je svakako zanimljiv jer daje vrlo isrcpan pregled suboticke rock scene proteklih godina. Kroz film je pokazano ko je ko na lokalneoj sceni, osim onih do kojih nije bilo moguce doci bez nekog medija koji komunicira s mrtvima, a dobili smo i vrlo dobar presek bendova koji su danas aktivni na subotickoj sceni ali se malo sto zna o njima izvan lokalnih okvira (Nevergreen, Ljudske potrebe, Ana Never, Pionir 10…). Film je na trenutke veoma duhovit, ali na trenutke i zamoran i neujednacen: neki likovi odgovaraju s pet recii dok se drugima posvecuje pet minuta; reditelj je u montazi trebao skratiti film za desetak minuta ili odgovore na ista ili slicna pitanja pokusati objediniti, jer vise sagovornika postavlja pitanje o tezgrarosima ili cover bendovima i nakon nekog vremena cini ti se da slusas plocu koja se vrti na istom mestu. A sam film ima i nekoliko bisera: jedan od ucesnika filma na pitanje zato vlasnici birtija daju prednost tezgarosima odgovara: „Skupi se stoka, pojede se, popije se i plate sund muzicari“; drugi postavlja pitanje zasto je Subotica Twin Peaks Srbije a treci zasto suboticki bubnjari jos zive u proslom veku i svrsavaju na Johna Bonhama, a sjajan odgovor na pitanje „Kada ce Subotica dobiti dobru scenu?“ dao je jedan lik rekavsi „Negde oko 3015“. Dakle, zabavno ali malo prerazvuceno.

Jedino sto ostane nerazjasnjeno jeste - sta je muzika sa Jasibare?

Jasibarci su Romi (sto znaci ljudi, muskarci i zene) ili Cigani (sto vodi poreklo još od Vizantije – od gnosticke sekte “nedodirljivih“), pre svega muzicari. Najrasniji i najreprezentativniji primer ciganske muzike je svakako Gyass, sto je romska rec, i trebalo bi da se cita i izgovara dzas, a znaci nesto poput – ‘ajmo!
Tako je dzas - muzicki pravac. Nije dzez, nije ni dzipsi dzez, nego dzas.

Posted Image

Format : AVI
Format/Info : Audio Video Interleave
File size : 619 MiB
Duration : 1h 12mn
Overall bit rate : 1 192 Kbps

Video
ID : 0
Format : MPEG-4 Visual
Format settings, BVOP : 1
Format settings, QPel : No
Format settings, GMC : No warppoints
Format settings, Matrix : Default (H.263)
Muxing mode : Packed bitstream
Codec ID : DX50
Codec ID/Hint : DivX 5
Duration : 1h 12mn
Bit rate : 1 023 Kbps
Width : 1 024 pixels
Height : 576 pixels
Display aspect ratio : 16:9
Frame rate : 25.000 fps
Color space : YUV
Chroma subsampling : 4:2:0
Bit depth : 8 bits
Scan type : Progressive
Compression mode : Lossy
Bits/(Pixel*Frame) : 0.069
Stream size : 531 MiB (86%)
Title : Video
Writing library : DivX 3330

Audio
ID : 1
Format : MPEG Audio
Format version : Version 1
Format profile : Layer 3
Mode : Joint stereo
Codec ID : 55
Codec ID/Hint : MP3
Duration : 1h 12mn
Bit rate mode : Constant
Bit rate : 160 Kbps
Channel(s) : 2 channels
Sampling rate : 48.0 KHz
Compression mode : Lossy
Stream size : 83.1 MiB (13%)
Alignment : Split accross interleaves
Interleave, duration : 40 ms (1.00 video frame)
Interleave, preload duration : 500 ms
Title : Audio
Writing library : LAME3.92



Posted Image

Please Login or Register to see this Hidden Content

Posted Image

Edited by didica13, 18 December 2012 - 13:26.





0 user(s) are reading this topic

0 members, 0 guests, 0 anonymous users