Jump to content

Dobrodošli na Balkandownload.org
Tražite domaće knjige, exyu magazine, sinhronizirane crtane filmove, PC i ostale igre, strane i domaće filmove, dokumentarce, stranu i domaću muziku, itd. ? Ne morate tražiti dalje jer sve ćete to naći kod nas, uredno postavljeno i spremno za download. Osim toga registracijom možete sudjelovati u raznim postojećim temama na forumu, otvarati nove teme, sudjelovati u chatu i još mnogo toga. Ako već imaš otvoren račun, logiraj se ovde ,a ako želiš saznati zašto smo najbolji otvori novi račun i uverite se sami :)
Photo

Sedamdeset I Dva Dana (2010)


3 replies to this topic

#1
Tobacco Road

Tobacco Road

    The Warez GOD

  • Tobacco
  • PipPipPipPipPipPipPipPipPipPip
  • 23,347 posts
  • 992968 thanks
  • Locationscrls
Sedamdeset I Dva Dana (2010) DVDRip XviD 700mb

86lObz5.jpg

Rezija: Danilo Serbedzija
Scenario: Danilo Serbedzija
Zanr: Komedija, Drama
Godina: 2010

Uloge: Rade Serbedzija, Kresimir Mikic, Bogdan Diklic, Zivko Anocic, Mira Banjac, Dejan Acimovic, Lucija Serbedzija, Nebojsa Glogovac, Predrag Vusovic, Dragan Nikolic

Dedina američka penzija, koju prima njegova udovica, glavni je izvor prihoda ove porodice. Nakon što baba umre, njihova je egzistencija ozbiljno ugrožena, pa glava porodice Mane, zajedno sa sinom Todorom i bratom Jojom smišlja zanimljiv plan: zameniti babu! Planom su svi oduševljeni osim Branka, Jojinog sina, kojem je jedina želja sa devojkom pobeći što dalje od njih…

Velicina: 700 MB
Video: XviD | 624x336 | 957 kb/s
Audio: Hrvatski | MP3 VBR | 129 kb/s
Trajanje: 89 Minutes

Screen

BLMNngv.jpg



Download
 
 
 
Hidden Content
You'll be able to see the hidden content once you thank this post.

Edited by Casino, 07 March 2016 - 01:56.
linkovi su obnovljeni

 

 

Kako skinuti nesto sa Balkandownload-a?

www.slideshare.net/bd4yu/kako-skidati-fajlove-sa-balkan-download-a

Kako da pronadjete zeljeni sadrzaj na forumu? 

www.balkandownload.org/topic/40428-kako-pronaci-zeljeni-sadrzaj-na-forumu/

Najmračniji krugovi pakla su rezervisani za one koji u vremenima moralne krize ostanu neutralni i suzdržani -Dante Alighieri


Thanked by 106 Members:

#2
Wolf 13

Wolf 13

    Advanced Member

  • Members
  • PipPipPip
  • 426 posts
  • 33350 thanks
Sedamdeset i dva dana (2010) DVDrip AC3 5.1 x264 by Wolf
(MKV)
 
FIkU5Hs.jpg
 

Please Login or Register to see this Hidden Content

 

 

General
Unique ID                   : 13439028299913258305959991951925565178 (0xA1C43407AB7B91EC3903B400625D6FA)
Complete name               : Sedamdeset i dva dana (2010) DVDrip E-AC3 x264 by Wolf.mkv
Format                      : Matroska
Format version              : Version 4 / Version 2
File size                   : 1.10 GiB
Duration                    : 1 h 29 min
Overall bit rate            : 1 757 kb/s
Encoded date                : UTC 2018-11-22 14:13:24 / UTC 2018-11-22T11:09:55Z
Writing application         : mkvmerge v28.2.0 ('The Awakening') 64-bit
Writing library             : libebml v1.3.6 + libmatroska v1.4.9 / Lavf57.7.2
 
Video
ID                          : 1
Format                      : AVC
Format/Info                 : Advanced Video Codec
Format profile              : High [email protected]
Format settings             : CABAC / 8 Ref Frames
Format settings, CABAC      : Yes
Format settings, ReFrames   : 8 frames
Codec ID                    : V_MPEG4/ISO/AVC
Duration                    : 1 h 29 min
Bit rate                    : 1 500 kb/s
Width                       : 716 pixels
Height                      : 554 pixels
Display aspect ratio        : 1.85:1
Frame rate mode             : Constant
Frame rate                  : 25.000 FPS
Color space                 : YUV
Chroma subsampling          : 4:2:0
Bit depth                   : 10 bits
Scan type                   : Progressive
Bits/(Pixel*Frame)          : 0.151
Stream size                 : 937 MiB (83%)
Title                       : Sedamdeset i dva dana (2010)
Writing library             : x264 core 155 r2901 7d0ff22
Encoding settings           : cabac=1 / ref=8 / deblock=1:-1:-1 / analyse=0x3:0x133 / me=umh / subme=9 / psy=1 / psy_rd=1.00:0.15 / mixed_ref=1 / me_range=16 / chroma_me=1 / trellis=2 / 8x8dct=1 / cqm=0 / deadzone=21,11 / fast_pskip=1 / chroma_qp_offset=-3 / threads=6 / lookahead_threads=1 / sliced_threads=0 / nr=0 / decimate=1 / interlaced=0 / bluray_compat=0 / constrained_intra=0 / bframes=3 / b_pyramid=2 / b_adapt=2 / b_bias=0 / direct=3 / weightb=1 / open_gop=0 / weightp=2 / keyint=250 / keyint_min=25 / scenecut=40 / intra_refresh=0 / rc_lookahead=60 / rc=2pass / mbtree=1 / bitrate=1500 / ratetol=1.0 / qcomp=0.60 / qpmin=0 / qpmax=81 / qpstep=4 / cplxblur=20.0 / qblur=0.5 / vbv_maxrate=150000 / vbv_bufsize=187500 / nal_hrd=none / filler=0 / ip_ratio=1.40 / aq=1:1.00
Language                    : Croatian
Default                     : Yes
Forced                      : No
Color range                 : Limited
Color primaries             : BT.601 PAL
Transfer characteristics    : BT.709
Matrix coefficients         : BT.601
Statistics Tags Issue       : mkvmerge v28.2.0 ('The Awakening') 64-bit 2018-11-22 14:13:24 / mkvmerge v28.2.0 ('The Awakening') 64-bit 2018-11-22 14:13:24 / UTC 2018-11-22T11:09:55Z
FromStats_BitRate           : 1499022
FromStats_Duration          : 01:29:23.000000000
FromStats_FrameCount        : 134075
FromStats_StreamSize        : 1004907326
 
Audio
ID                          : 2
Format                      : E-AC-3
Format/Info                 : Enhanced Audio Coding 3
Codec ID                    : A_EAC3
Duration                    : 1 h 29 min
Bit rate mode               : Constant
Bit rate                    : 256 kb/s
Channel(s)                  : 6 channels
Channel positions           : Front: L C R, Side: L R, LFE
Sampling rate               : 48.0 kHz
Frame rate                  : 187.500 FPS (256 SPF)
Compression mode            : Lossy
Delay relative to video     : -5 ms
Stream size                 : 164 MiB (15%)
Title                       : Sedamdeset i dva dana (2010)
Language                    : Croatian
Service kind                : Complete Main
Default                     : Yes
Forced                      : No
Statistics Tags Issue       : mkvmerge v28.2.0 ('The Awakening') 64-bit 2018-11-22 14:13:24 / mkvmerge v28.2.0 ('The Awakening') 64-bit 2018-11-22 14:13:24 / UTC 2018-11-22T11:09:55Z
FromStats_BitRate           : 256000
FromStats_Duration          : 01:29:22.976000000
FromStats_FrameCount        : 167593
FromStats_StreamSize        : 171615232
 
epYscVA.png
Hidden Content
You'll be able to see the hidden content once you thank this post.
 
bSN9MX2.png
BdUaOo0.jpg

Edited by Wolf 13, 27 December 2018 - 19:21.


Thanked by 81 Members:

#3
nikolakralj100

nikolakralj100

    Advanced Member

  • Members
  • PipPipPip
  • 346 posts
  • 20492 thanks

DVDr

 

AHMzC7Q.jpg

 

fzeeNqG.jpg

 

 

Hidden Content
You'll be able to see the hidden content once you thank this post.


Thanked by 44 Members:
TheAlex50 , zokigrujic , Tashanna , baronrajo , kupa76 , kibax69 , canexx , fritz200300 , liquid , Zelenac1 , toco222 , banecar50 , maruj , lestrejndz , CoBJeT , flamingo , Topcider , zoxkg , sloznabraca , xnoz25 , Attila , MiraDr , bogibond , johnthejack , rafael13 , kecy , polkica , danijeladanijel , vajtaun , Profa21 , b50andi , starikolekcionar , bole60 , ludilule , darkan , slavisonac , ivke80 , garix92 , PucaPukiBrat , grof65 , caki1980 , draganik , woodooye , morpheus0106

#4
Zoran_

Zoran_

    Gold Member

  • VIP
  • PipPipPipPipPipPip
  • 5,984 posts
  • 149156 thanks
Sedamdeset i dva dana (2010)
 
 
6WXOzu4.png
 
Su6Ksi6.jpg
 

Please Login or Register to see this Hidden Content

 
Dedina američka penzija, koju prima njegova udovica, glavni je izvor prihoda ove porodice. Nakon što baba umre, njihova je egzistencija ozbiljno ugrožena, pa glava porodice Mane, zajedno sa sinom Todorom i bratom Jojom smišlja zanimljiv plan: zameniti babu! Planom su svi oduševljeni osim Branka, Jojinog sina, kojem je jedina želja sa devojkom pobeći što dalje od njih…
 
3z5y07qieyn.png
 
O0cdy1l.gif
 
NtNjIdd.jpg
 
Oets6ur.gif
 
Sedamdeset i dva dana (2010) 720p.HDRip.x264.mkv
 
SFYUbuP.jpg
 
Hidden Content
You'll be able to see the hidden content once you thank this post.

Molbe za moje linkove, šaljite na PP.

 

Zabranjeno je kopiranje mojih linkova,reupload i postavljanje na druge forume!


Thanked by 39 Members:
Tolle , kockari , TheAlex50 , zokigrujic , Dete kreten , Tashanna , baronrajo , dr_obad , mwac , rile1972 , kupa76 , ***13 , kibax69 , zoxkg , dusko1808 , goransokolovic.fr , sdlder , canexx , bbob3500 , Alamo74 , Prene , blauer , fritz200300 , Vule83 , jumanjinz , Homss , alexxxxa , akiro , kprekrat2 , maruj , dreidolin , Jokso , woodooye , beograd1960' , neboysha , Miki_Kiki_Riki , Zelenac1 , toco222 , persifal2



0 user(s) are reading this topic

0 members, 0 guests, 0 anonymous users