Jump to content

Dobrodošli na Balkandownload.org
Tražite domaće knjige, exyu magazine, sinhronizirane crtane filmove, PC i ostale igre, strane i domaće filmove, dokumentarce, stranu i domaću muziku, itd. ? Ne morate tražiti dalje jer sve ćete to naći kod nas, uredno postavljeno i spremno za download. Osim toga registracijom možete sudjelovati u raznim postojećim temama na forumu, otvarati nove teme, sudjelovati u chatu i još mnogo toga. Ako već imaš otvoren račun, logiraj se ovde ,a ako želiš saznati zašto smo najbolji otvori novi račun i uverite se sami :)

Cetvrti Covek ( 2007 )


2 replies to this topic

#1
Guest_**offline**_*

Guest_**offline**_*
  • Guests
  • thanks
[MULTI][ 1 LINK ][ 5 HOSTS ][ SINGLE EXTRACT ][RS|PL|LF|CR|180U]Cetvrti.covek.DVDRip.XviD
ENGLESKI SUBTITL SE NALAZI U RAR ARHIVI .
cetvrti-covek-poster.jpg

Please Login or Register to see this Hidden Content

>> Opis Filma: <<

Covek se budi iz kome nakon dva meseca. Totalna amnezija - ne seca se nicega što ima veze s njegovim dotadašnjim životom. Saznaje da je imao ženu i sina. Ubijeni su kada je on ranjen.

Pukovnik, koji tvrdi da mu je najbolji prijatelj, otkriva mu njegov prošli identitet. On je major Vojnobezbednosne agencije. U njegov život se ubrzo uplice i inspektor koji tvrdi da

poseduje informacije o smrti njegove porodice. Major izlazi iz bolnice. Pokušava da se vrati u normalan život. Suocava se s prazninom i beznadem. Jedina šansa da ponovo dode do

sopstvenog identiteta je da se upusti u igru koju mu nudi inspektor. Pristaje. U meduvremenu srece Teodoru, nekadašnju ljubavnicu. Ne seca je se, ali ona jedina u njemu prepoznaje novog

coveka.

Žanr: Akcija ‹ Avantura ‹ Mystery
Režiser: Dejan Zečević
Glavne uloge: Nikola Kojo, Dragan Petrovic and Bogdan Diklić
 

Upload Obnovljeni u sledecem postu

Thanked by 52 Members:
nitrox24 , lordxzar , aleksmilun , marchello , Sleeper , aleandro99 , vladimir sramka , StefanUžice , GORANJ79 , Stefi_1997 , beeplo , fladoje , armin79 , Strale_mdf , lex1 , marjanček , BRAZIL , pina , zvonkora , tosveeeee , kakogod79 , josip13th , makac90 , MaliIgicGregor , a8888 , bagirin , salgija , Topcider , Zelenac1 , vild , jamacan , ptar69 , miskovic83 , Hornet_UE , bojan1701 , stevica11 , 2306iw , mangalica , keops87 , Ron , pericamihajlo , Dusan Torlakovic , Miljan12343 , pitbulterier1951 , Brky1950 , PetarPanZvincica , milan1968 , danijela.p. , Boza030 , Jaksa666 , durant212 , kitovodete

#2
Wolf 13

Wolf 13

    Advanced Member

  • Members
  • PipPipPip
  • 426 posts
  • 33633 thanks
Cetvrti covek (2007) DVDrip AC3 5.1 x264 by Wolf
(MKV) HQ
 
wUkzJNI.jpg
 

Please Login or Register to see this Hidden Content

 

General
Unique ID                   : 157931846061895467367575956256567411334 (0x76D09130C3052A088BB20042AC194286)
Complete name               : Cetvrti covek (2007) DVDrip AC3 5.1 x264 by Wolf.mkv
Format                      : Matroska
Format version              : Version 4 / Version 2
File size                   : 1.24 GiB
Duration                    : 1 h 43 min
Overall bit rate            : 1 724 kb/s
Encoded date                : UTC 2018-12-04 14:24:06 / UTC 2018-12-04T12:12:23Z
Writing application         : mkvmerge v29.0.0 ('Like It Or Not') 64-bit
Writing library             : libebml v1.3.6 + libmatroska v1.4.9 / Lavf57.7.2
 
Video
ID                          : 1
Format                      : AVC
Format/Info                 : Advanced Video Codec
Format profile              : [email protected]
Format settings             : CABAC / 8 Ref Frames
Format settings, CABAC      : Yes
Format settings, ReFrames   : 8 frames
Codec ID                    : V_MPEG4/ISO/AVC
Duration                    : 1 h 43 min
Bit rate                    : 1 500 kb/s
Width                       : 720 pixels
Height                      : 424 pixels
Display aspect ratio        : 16:9
Frame rate mode             : Constant
Frame rate                  : 25.000 FPS
Color space                 : YUV
Chroma subsampling          : 4:2:0
Bit depth                   : 8 bits
Scan type                   : Progressive
Bits/(Pixel*Frame)          : 0.197
Stream size                 : 1.03 GiB (83%)
Title                       : Cetvrti covek (2007)
Writing library             : x264 core 155 r2901 7d0ff22
Encoding settings           : cabac=1 / ref=8 / deblock=1:-1:-1 / analyse=0x3:0x133 / me=umh / subme=9 / psy=1 / psy_rd=1.00:0.15 / mixed_ref=1 / me_range=16 / chroma_me=1 / trellis=2 / 8x8dct=1 / cqm=0 / deadzone=21,11 / fast_pskip=1 / chroma_qp_offset=-3 / threads=6 / lookahead_threads=1 / sliced_threads=0 / nr=0 / decimate=1 / interlaced=0 / bluray_compat=0 / constrained_intra=0 / bframes=3 / b_pyramid=2 / b_adapt=2 / b_bias=0 / direct=3 / weightb=1 / open_gop=0 / weightp=2 / keyint=250 / keyint_min=25 / scenecut=40 / intra_refresh=0 / rc_lookahead=60 / rc=2pass / mbtree=1 / bitrate=1500 / ratetol=1.0 / qcomp=0.60 / qpmin=0 / qpmax=69 / qpstep=4 / cplxblur=20.0 / qblur=0.5 / vbv_maxrate=300000 / vbv_bufsize=300000 / nal_hrd=none / filler=0 / ip_ratio=1.40 / aq=1:1.00
Language                    : Serbian
Default                     : Yes
Forced                      : No
Color range                 : Limited
Color primaries             : BT.601 PAL
Transfer characteristics    : BT.709
Matrix coefficients         : BT.601
Statistics Tags Issue       : mkvmerge v29.0.0 ('Like It Or Not') 64-bit 2018-12-04 14:24:06 / mkvmerge v29.0.0 ('Like It Or Not') 64-bit 2018-12-04 14:24:06 / UTC 2018-12-04T12:12:23Z
FromStats_BitRate           : 1500042
FromStats_Duration          : 01:41:01.000000000
FromStats_FrameCount        : 151525
FromStats_StreamSize        : 1136470042
 
Audio
ID                          : 2
Format                      : E-AC-3
Format/Info                 : Enhanced Audio Coding 3
Codec ID                    : A_EAC3
Duration                    : 1 h 43 min
Bit rate mode               : Constant
Bit rate                    : 256 kb/s
Channel(s)                  : 6 channels
Channel positions           : Front: L C R, Side: L R, LFE
Sampling rate               : 48.0 kHz
Frame rate                  : 187.500 FPS (256 SPF)
Compression mode            : Lossy
Delay relative to video     : -5 ms
Stream size                 : 189 MiB (15%)
Title                       : Cetvrti covek (2007)
Language                    : Serbian
Service kind                : Complete Main
Default                     : Yes
Forced                      : No
Statistics Tags Issue       : mkvmerge v29.0.0 ('Like It Or Not') 64-bit 2018-12-04 14:24:06 / mkvmerge v29.0.0 ('Like It Or Not') 64-bit 2018-12-04 14:24:06 / UTC 2018-12-04T12:12:23Z
FromStats_BitRate           : 256000
FromStats_Duration          : 01:43:18.624000000
FromStats_FrameCount        : 193707
FromStats_StreamSize        : 198355968
 
epYscVA.png
Hidden Content
You'll be able to see the hidden content once you thank this post.
 
mADe2Lq.png
RFWSoTh.jpg

Edited by Wolf 13, 04 December 2018 - 23:15.


Thanked by 142 Members:

#3
Zoran_

Zoran_

    Gold Member

  • VIP
  • PipPipPipPipPipPip
  • 5,992 posts
  • 149878 thanks
Cetvrti Covek (2007)
 
 
CetvrtiCovek2007.png
 
Su6Ksi6.jpg
 

Please Login or Register to see this Hidden Content

 
Covek se budi iz kome nakon dva meseca. Totalna amnezija - ne seca se nicega sto ima veze s njegovim dotadasnjim zivotom. Saznaje da je imao zenu i sina. Ubijeni su kada je on ranjen. Pukovnik, koji tvrdi da mu je najbolji prijatelj, otkriva mu njegov prosli identitet. On je major Vojnobezbednosne agencije. U njegov zivot se ubrzo uplice i inspektor koji tvrdi da poseduje informacije o smrti njegove porodice. Major izlazi iz bolnice. Pokusava da se vrati u normalan zivot. Suocava se s prazninom i beznadjem. Jedina sansa da ponovo dodje do sopstvenog identiteta je da se upusti u igru koju mu nudi inspektor. Pristaje ... U medjuvremenu srece Teodoru, nekadasnju ljubavnicu. Ne seca je se, ali ona jedina u njemu prepoznaje novog coveka ...
 
CetvrtiCovek2007.avi.gif
 
CetvrtiCovek2007.avi.jpg
 
Oets6ur.gif
 
Cetvrti Covek (2007) DVDRip avi
 
SFYUbuP.jpg
 
Hidden Content
You'll be able to see the hidden content once you thank this post.

Molbe za moje linkove, šaljite na PP.

 

Zabranjeno je kopiranje mojih linkova,reupload i postavljanje na druge forume!


Thanked by 73 Members:
zwengla , blacksad011 , mikula11 , lazicseno , sasasip , Nenad71088 , khftebvio , Jorgos , maddex , jadjonbv , Xplicit , vukoje32 , 303808909 , trtmrtbc1 , DakaZvaka , milanalorica , hobotnica , MiraDr , PatrickBateman , Verdeja , lestrejndz , 8888 , jasambre , aleksmilun , marchello , hunters , vukotastosic , b50andi , imarkovic , runjaa , MomirD , dj1van , vajtaun , aleandro99 , drageci , Markoni1999 , sloznabraca , ivannk82 , severing , perishaa , zekiso , ljubisa1968 , johnrangel25 , vladimir sramka , skela , GORANJ79 , mmilann , Stefi_1997 , beeplo , cikakajtez , darivoje3 , direhard , tejicma , ivory , Milfir , markoaleksic012 , Blackstorm , JasminaNOVA , fladoje , armin79 , toco222 , 3rutal , Strale_mdf , MP22 , kristinasavicevic , Korto74 , Alamo74 , Vronsky , cigoyner , miki-maus23 , Gorolomac , pleckowian , dzogani



0 user(s) are reading this topic

0 members, 0 guests, 0 anonymous users