Jump to content

Dobrodošli na Balkandownload.org
Tražite domaće knjige, exyu magazine, sinhronizirane crtane filmove, PC i ostale igre, strane i domaće filmove, dokumentarce, stranu i domaću muziku, itd. ? Ne morate tražiti dalje jer sve ćete to naći kod nas, uredno postavljeno i spremno za download. Osim toga registracijom možete sudjelovati u raznim postojećim temama na forumu, otvarati nove teme, sudjelovati u chatu i još mnogo toga. Ako već imaš otvoren račun, logiraj se ovde ,a ako želiš saznati zašto smo najbolji otvori novi račun i uverite se sami :)
Photo

La Luna (2012)


  • Please log in to reply
No replies to this topic

#1
pparadiso

pparadiso

    Advanced Member

  • Members
  • PipPipPip
  • 817 posts
  • 284 thanks
La Luna (2012)

Posted Image

Pixar's 'La Luna' Short: Delight in Three Generations of Moon Custodians
October 31, 2012 / disney, la luna, pixar, short, short films

Shown before screenings of Brave and already an Academy Award nominee, Pixar's La Luna is now available--at least for a while--as a convenient webpage video, so now's your chance to enjoy it again or for the first time. It is so whimsical and charmingly crafted, you'll hardly notice its underlying message about being born into and forever doomed to janitorial work.

Posted Image

Format : AVI
Format/Info : Audio Video Interleave
File size : 97.7 MiB
Duration : 6mn 57s
Overall bit rate : 1 965 Kbps
Writing application : MEncoder SVN-r30881(20100311-gcc4.3.3)
Writing library : MPlayer

Video
ID : 0
Format : MPEG-4 Visual
Format profile : Advanced [email protected]
Format settings, BVOP : 2
Format settings, QPel : No
Format settings, GMC : No warppoints
Format settings, Matrix : Default (H.263)
Codec ID : XVID
Codec ID/Hint : XviD
Duration : 6mn 56s
Bit rate : 1 826 Kbps
Width : 1 280 pixels
Height : 536 pixels
Display aspect ratio : 2.40:1
Frame rate : 23.976 fps
Color space : YUV
Chroma subsampling : 4:2:0
Bit depth : 8 bits
Scan type : Progressive
Compression mode : Lossy
Bits/(Pixel*Frame) : 0.111
Stream size : 90.7 MiB (93%)
Writing library : XviD 1.2.1 (UTC 2008-12-04)

Audio
ID : 1
Format : MPEG Audio
Format version : Version 1
Format profile : Layer 3
Mode : Joint stereo
Mode extension : MS Stereo
Codec ID : 55
Codec ID/Hint : MP3
Duration : 6mn 57s
Bit rate mode : Constant
Bit rate : 128 Kbps
Channel(s) : 2 channels
Sampling rate : 44.1 KHz
Compression mode : Lossy
Delay relative to video : 42ms
Stream size : 6.36 MiB (7%)
Alignment : Aligned on interleaves
Interleave, duration : 26 ms (0.63 video frame)
Interleave, preload duration : 522 ms
Writing library : LAME3.98


Posted Image

Please Login or Register to see this Hidden Content


Posted Image

Please Login or Register to see this Hidden Content

Posted Image




0 user(s) are reading this topic

0 members, 0 guests, 0 anonymous users