Jump to content

Dobrodošli na Balkandownload.org
Tražite domaće knjige, exyu magazine, sinhronizirane crtane filmove, PC i ostale igre, strane i domaće filmove, dokumentarce, stranu i domaću muziku, itd. ? Ne morate tražiti dalje jer sve ćete to naći kod nas, uredno postavljeno i spremno za download. Osim toga registracijom možete sudjelovati u raznim postojećim temama na forumu, otvarati nove teme, sudjelovati u chatu i još mnogo toga. Ako već imaš otvoren račun, logiraj se ovde ,a ako želiš saznati zašto smo najbolji otvori novi račun i uverite se sami :)
Photo

Lick Library - Learn to play Red Hot Chili Peppers - Volume 1,2


No replies to this topic

#1
Joshida Kagero

Joshida Kagero

    Silver Member

  • Prijatelj foruma
  • PipPipPipPipPip
  • 3,915 posts
  • 2383 thanks
  • Location/root

Please Login or Register to see this Hidden Content



Lick Library - Learn to play Red Hot Chili Peppers - Volume 1,2
with Stuart Bull, Michael Casswell

2xDVDRip | English | AVI | 704 x 384 | XviD ~666 kbps | 25.000 fps
MP3 | 128 kbps | 48.0 KHz | 2 channels | 05:33:08 | 2.05 GB
Genre: eLearning / Playing the guitar, Demonstration songs
Learn five RHCP tracks with Stuart Bull and Mike Casswell. This superb DVD will teach you five killer tracks from this legendary American rockers... learn every riff and solo note for note! Tracks include; Under The Bridge, By The Way, Californication, Cant Stop, Dani California, Scar Tissue, Other Side, Slow Cheetah, Desecration Smile, Snow Hey Oh.

MediaInfo:
General
Complete name : 01_-_Californication\03_-_Solo_&_Outro_Rhythm_Sections.avi
Format : AVI
Format/Info : Audio Video Interleave
File size : 50.9 MiB
Duration : 8mn 53s
Overall bit rate : 800 Kbps
Writing application : VirtualDubMod 1.5.10.1 Ðóñ îò Stvens Inc.™ www.stvens.amillo.net (build 2439/release)
Writing library : VirtualDubMod build 2439/release
Video #0
ID : 0
Format : MPEG-4 Visual
Format profile : [email protected]
Format settings, BVOP : Yes
Format settings, QPel : No
Format settings, GMC : No warppoints
Format settings, Matrix : Default (MPEG)
Codec ID : XVID
Codec ID/Hint : XviD
Duration : 8mn 53s
Bit rate : 666 Kbps
Width : 704 pixels
Height : 384 pixels
Display aspect ratio : 16:9
Frame rate : 25.000 fps
Resolution : 24 bits
Colorimetry : 4:2:0
Scan type : Progressive
Bits/(Pixel*Frame) : 0.099
Stream size : 42.3 MiB (83%)
Writing library : XviD 1.2.1 (UTC 2008-12-04)
Audio #1
ID : 1
Format : MPEG Audio
Format version : Version 1
Format profile : Layer 3
Codec ID : 55
Codec ID/Hint : MP3
Duration : 8mn 53s
Bit rate mode : Constant
Bit rate : 128 Kbps
Channel(s) : 2 channels
Sampling rate : 48.0 KHz
Resolution : 16 bits
Stream size : 8.13 MiB (16%)
Alignment : Aligned on interleaves
Interleave, duration : 200 ms (5.00 video frames)
Interleave, preload duration : 504 ms
Writing library : LAME3.98r
Encoding settings : -m j -V 4 -q 0 -lowpass 17 -b 128
Contents:
Californication
Intro & Verses (5:04)
Bridge & Choruses (7:04)
Solo & Outro Rhythm Sections (8:53)
Performance (5:27)
Can't Stop
Intro & Main Riff (9:18)
Chorus, Arrangement & Middle Eight (16:15)
Solo & Outro (7:01)
Performance (4:24)
Under The Bridge
Intro (7:11)
Verses (8:52)
Chorus, Middle Eight & Outro (10:33)
Performance (4:30)
Dani California
Intro, 1st Verse & Chorus (12:10)
Verse Fills, Mid Section & 3rd Verse (12:23)
Final Chorus Harmonies (5:08)
Solo (12:50)
Performance (4:46)


Please Login or Register to see this Hidden Content


By The Way
Intro (5:58)
Verse & Chorus (9:03)
2nd Verse & Outro (5:17)
Performance (3:44)
Slow Cheetah
Acoustic Parts (25:16)
Electric Parts (6:35)
Solo & Backwards Guitar (10:07)
Performance (5:25)
Desecration Smile
Acoustic Parts (10:47)
Electric Parts (4:59)
Electric Harmony (5:05)
Slide Solo & Keyboard Motif (7:28)
Performance (5:08)
Snow Hey Oh
Opening Riff (12:00)
Chorus & Harmony (8:31)
Controlled Chaos (6:16)
Performance (5:38)
Scar Tissue
Intro & Rhythm (16:42)
Slide Solos (8:07)
Performance (3:39)
Other Side
Intro & Octave Shapes (6:53)
Bridge, Mid Section & Solo (12:08)
Performance (4:13)


ScreenShots

Please Login or Register to see this Hidden Content



Please Login or Register to see this Hidden Content



Please Login or Register to see this Hidden Content



Please Login or Register to see this Hidden Content



Please Login or Register to see this Hidden Content


Ko nema u vugla, ima u Gugla
Posted Image

Proklete pijavice i bezkicmenjaci!

Thanked by 1 Member:
zagortnt



0 user(s) are reading this topic

0 members, 0 guests, 0 anonymous users