Jump to content

Dobrodošli na Balkandownload.org
Tražite domaće knjige, exyu magazine, sinhronizirane crtane filmove, PC i ostale igre, strane i domaće filmove, dokumentarce, stranu i domaću muziku, itd. ? Ne morate tražiti dalje jer sve ćete to naći kod nas, uredno postavljeno i spremno za download. Osim toga registracijom možete sudjelovati u raznim postojećim temama na forumu, otvarati nove teme, sudjelovati u chatu i još mnogo toga. Ako već imaš otvoren račun, logiraj se ovde ,a ako želiš saznati zašto smo najbolji otvori novi račun i uverite se sami :)
Photo

Lick Library - Learn to play Pink Floyd - Volume 2


No replies to this topic

#1
Joshida Kagero

Joshida Kagero

    Silver Member

  • Prijatelj foruma
  • PipPipPipPipPip
  • 3,915 posts
  • 2226 thanks
  • Location/root

Please Login or Register to see this Hidden Content



Lick Library - Learn to play Pink Floyd - Volume 2
with Jamie Humphries

2xDVDRip | English | AVI | 720 x 384 | XviD ~647 kbps | 25.000 fps
MP3 | 128 kbps | 48.0 KHz | 2 channels | 04:02:36 | 1.4 GB
Genre: eLearning / Playing the guitar, Demonstration songs
Learn five Pink Floyd tracks note for note with Jamie Humphries! This excellent 2 DVD set will guide you through the bluesy rock licks of Dave Gilmour, one of the greatest Strat players of all time! Bonus footage includes equipment set up and performances.

MediaInfo:
General
Complete name : 03_-_Time_-_1st_Verse_&_Solo.avi
Format : AVI
Format/Info : Audio Video Interleave
File size : 153 MiB
Duration : 27mn 23s
Overall bit rate : 781 Kbps
Writing application : VirtualDubMod 1.5.10.1 Ðóñ îò Stvens Inc.™ www.stvens.amillo.net (build 2439/release)
Writing library : VirtualDubMod build 2439/release
Video #0
ID : 0
Format : MPEG-4 Visual
Format profile : [email protected]
Format settings, BVOP : Yes
Format settings, QPel : No
Format settings, GMC : No warppoints
Format settings, Matrix : Default (MPEG)
Codec ID : XVID
Codec ID/Hint : XviD
Duration : 27mn 23s
Bit rate : 647 Kbps
Width : 720 pixels
Height : 384 pixels
Display aspect ratio : 1.875
Frame rate : 25.000 fps
Resolution : 24 bits
Colorimetry : 4:2:0
Scan type : Progressive
Bits/(Pixel*Frame) : 0.094
Stream size : 127 MiB (83%)
Writing library : XviD 1.2.1 (UTC 2008-12-04)
Audio #1
ID : 1
Format : MPEG Audio
Format version : Version 1
Format profile : Layer 3
Codec ID : 55
Codec ID/Hint : MP3
Duration : 27mn 23s
Bit rate mode : Constant
Bit rate : 128 Kbps
Channel(s) : 2 channels
Sampling rate : 48.0 KHz
Resolution : 16 bits
Stream size : 25.1 MiB (16%)
Alignment : Aligned on interleaves
Interleave, duration : 200 ms (5.00 video frames)
Interleave, preload duration : 504 ms
Writing library : LAME3.98r
Encoding settings : -m j -V 4 -q 3 -lowpass 17 -b 128

Includes:

Introduction (1:21)
Time
Intro (6:36)
1st Verse & Solo (27:23)
Final Verse (12:47)
Time - Performance (6:25)
Mother
Verses & B Section (11:49)
Solo & Final Verse/Chorus (10:31)
Mother - Performance (5:32)
Learning To Fly
Rhythm Section & Chorus (9:51)
Lead Break & 2nd Verse (6:21)
2nd Chorus & Middle 8 (6:19)
Final Lead Fill & Outro Solo (11:23)
Learning To Fly - Performance (4:46)
On The Turning Away
Verse (13:08)
Solo (21:53)
On The Turning Away - Performance (5:17)
Have A Cigar
Intro, Verse & Chorus (14:54)
Lead Guitar (12:01)
Solo (17:38)
Have A Cigar - Performance (5:18)
Sounds & Equipment (23:54)
Conclusion (0:55)
Bonus
Australian Pink Floyd Show - On The Turning Away (4:44)
Australian Pink Floyd Show - Set The Controls For The Heart Of The Sun (1:36)


Please Login or Register to see this Hidden Content



Please Login or Register to see this Hidden Content



Please Login or Register to see this Hidden Content



Please Login or Register to see this Hidden Content


Ko nema u vugla, ima u Gugla
Posted Image

Proklete pijavice i bezkicmenjaci!




0 user(s) are reading this topic

0 members, 0 guests, 0 anonymous users