Jump to content

Dobrodošli na Balkandownload.org
Tražite domaće knjige, exyu magazine, sinhronizirane crtane filmove, PC i ostale igre, strane i domaće filmove, dokumentarce, stranu i domaću muziku, itd. ? Ne morate tražiti dalje jer sve ćete to naći kod nas, uredno postavljeno i spremno za download. Osim toga registracijom možete sudjelovati u raznim postojećim temama na forumu, otvarati nove teme, sudjelovati u chatu i još mnogo toga. Ako već imaš otvoren račun, logiraj se ovde ,a ako želiš saznati zašto smo najbolji otvori novi račun i uverite se sami :)
Photo

Rise Of The Guardians(2012)


  • Please log in to reply
3 replies to this topic

#1
Uploader

Uploader

    Gold Member

  • Members
  • PipPipPipPipPipPip
  • 5,423 posts
  • 10243 thanks
[MULTI][ 5 HOSTS ][ SINGLE EXTRACT ][RS|UL|PL|CZ|UP]Rise Of The Guardians (2012) TS NEW SOURCE x264 AAC-UNiQUE
LINKOVI SE MOGU KOMBINOVATI
Posted Image

Please Login or Register to see this Hidden Content

When the evil spirit Pitch launches an assault on Earth, the Immortal Guardians team up to protect the innocence of children all around the world.

ooooo ooo ooooo ooo o8o .oooooo. ooooo ooo oooooooooooo
`888� `8� `888b. `8� `"� d8P� `Y8b `888� `8� `888� `8
888 8 8 `88b. 8 oooo 888 888 888 8 888
888 8 8 `88b. 8 `888 888 888 888 8 888oooo8
888 8 8 `88b.8 888 888 888 888 8 888 "
`88. .8� 8 `888 888 `88b d88b `88. .8� 888 o
`YbodP� o8o `8 o888o `Y8bood8P�Ybd� `YbodP� o888ooooood8


[[.........why be the same as everyone else when YOU can be UNiQUE™.........]]

General
Complete name : Rise of the Guardians 2012 TS NEW SOURCE x264 AAC-UNiQUE.mp4
Format : MPEG-4
Format profile : Base Media
Codec ID : isom
File size : 1.44 GiB
Duration : 1h 27mn
Overall bit rate mode : Variable
Overall bit rate : 2 351 Kbps
Encoded date : UTC 2012-11-29 12:32:49

Video
ID : 1
Format : AVC
Format/Info : Advanced Video Codec
Format profile : [email protected]
Format settings, CABAC : Yes
Format settings, ReFrames : 3 frames
Codec ID : avc1
Codec ID/Info : Advanced Video Coding
Duration : 1h 27mn
Bit rate mode : Variable
Bit rate : 2 212 Kbps
Maximum bit rate : 40.0 Mbps
Width : 720 pixels
Height : 354 pixels
Display aspect ratio : 2.034
Frame rate mode : Constant
Frame rate : 29.970 fps
Color space : YUV
Chroma subsampling : 4:2:0
Bit depth : 8 bits
Scan type : Progressive
Bits/(Pixel*Frame) : 0.290
Stream size : 1.35 GiB (94%)
Writing library : x264 core 129 r2230 1cffe9f

Audio
ID : 2
Format : AAC
Format/Info : Advanced Audio Codec
Format profile : LC
Codec ID : 40
Duration : 1h 27mn
Bit rate mode : Variable
Bit rate : 135 Kbps
Maximum bit rate : 153 Kbps
Channel(s) : 2 channels
Channel positions : Front: L R
Sampling rate : 48.0 KHz
Compression mode : Lossy
Stream size : 84.2 MiB (6%)
Language : English
Encoded date : UTC 2012-11-29 12:34:50

Sources : Video - MATiNE 720p files - Thanks!
: Audio - echo/MATiNE

Sample Included : Yes.

Storyline
When the evil spirit Pitch launches an assault on Earth, the Immortal Guardians team up to protect the innocence of children all around the world.

iMDB:

Please Login or Register to see this Hidden Content



Notes:
Sweet.., ok now the source was a bit bright and had a bit of camera movement, some borders do still show now and again, and theres a bit of scoll

flicker not always but some to mention, anyways i lowered the bright a bit then just messed with crop, resize, contrast, hue, levels then sharpened and

to me this looks mint. Audio is good enough line but we used 90 secs of cam audio to fill gaps in our vid.

Enjoy another KICKASS UNiQUE RELEASE !!!!!!

SCREENSHOTS :
Posted Image
Posted Image
Posted Image
Posted Image
Posted Image
Posted Image
DOWNLOAD :
10 % Recovery Record Added :

Please Login or Register to see this Hidden Content

Password :

Please Login or Register to see this Hidden Content

LINKOVI SE MOGU KOMBINOVATI

Edited by didica13, 18 December 2012 - 03:30.


#2
Guest_butterfly_*

Guest_butterfly_*
  • Guests
  • thanks

Rise of the Guardians (2012)





INFORMACIJE


Rise of the Guardians is an epic adventure that tells the story of a group of heroes – each with extraordinary abilities. When an evil spirit known as Pitch lays down the gauntlet to take over the world, the immortal Guardians must join forces for the first time to protect the hopes, beliefs and imagination of children all over the world.
Release Date: 22 November 2012 (Indonesia)
Genre: Animation | Adventure | Family
Stars : Hugh Jackman, Alec Baldwin and Isla Fisher
Quality: TS
Source: TS XviD MP3-ADTRG
Size: 400MB




SCREENSHOTS


Please Login or Register to see this Hidden Content







LINKOVI

 

 

 

Please Login or Register to see this Hidden Content



#3
PipiPepa37

PipiPepa37

    Newbie

  • Members
  • Pip
  • 5 posts
  • 0 thanks

Kako dobiti vaše linkove za skidanje??

 

Hvala unaprijed.

PipiPepa



#4
Tobacco Road

Tobacco Road

    The Warez GOD

  • Tobacco
  • PipPipPipPipPipPipPipPipPipPip
  • 17,634 posts
  • 123761 thanks
  • Locationscrls

Rise of the Guardians (2012) DVDSCR LiNE XViD - sC0rp + UPAKOVAN PREVOD

 

 

guardv1.jpg

 

 

 

Rise of the Guardians (2012) DVDSCR LiNE XviD-sC0rp
Language: English
01:37:06 | 640x352 | XviD - 870Kbps | 23.976fps | MP3 - 128Kbps | 697MB
Genre: Animation | Adventure | Family
IMDB Ratings: 7.5/10
 
When the evil spirit Pitch launches an assault on Earth, the Immortal Guardians team up to protect the innocence of children all around the world.

 

Screen

 

NblskOb.jpg

 

 

 

Download + upakovan prevod

Please Login or Register to see this Hidden Content


Kako skinuti nesto sa Balkandownload-a?

 

 

http://www.slideshare.net/bd4yu/kako-skidati-fajlove-sa-balkan-download-a

 

 

Kako da pronadjete zeljeni sadrzaj na forumu? 

 

 

http://www.balkandownload.org/topic/40428-kako-pronaci-zeljeni-sadrzaj-na-forumu/

 

Najmračniji krugovi pakla su rezervisani za one koji u vremenima moralne krize ostanu neutralni i suzdržani -Dante Alighieri





0 user(s) are reading this topic

0 members, 0 guests, 0 anonymous users