Jump to content

Dobrodošli na Balkandownload.org
Tražite domaće knjige, exyu magazine, sinhronizirane crtane filmove, PC i ostale igre, strane i domaće filmove, dokumentarce, stranu i domaću muziku, itd. ? Ne morate tražiti dalje jer sve ćete to naći kod nas, uredno postavljeno i spremno za download. Osim toga registracijom možete sudjelovati u raznim postojećim temama na forumu, otvarati nove teme, sudjelovati u chatu i još mnogo toga. Ako već imaš otvoren račun, logiraj se ovde ,a ako želiš saznati zašto smo najbolji otvori novi račun i uverite se sami :)
Photo

Vuk Samotnjak (1972)


4 replies to this topic

#1
MaliGrizeBeton

MaliGrizeBeton

    Silver Member

  • Members
  • PipPipPipPipPip
  • 2,524 posts
  • 22592 thanks

Vuk samotnjak (1972)

 
 
p.png
 
 
 
 [info]

Please Login or Register to see this Hidden Content

 
Decak u planini nalazi velikog psa slicnog vuku i sprijateljuje se sa njim. Medjutim, seljani veruju da se radi o opasnom vuku, samotnjaku, i da ga treba ubiti. Decak zbog toga strahuje za svog ljubimca. Krisom mu nosi hranu u planinu. Pas ga jednom cak spasava od vuka. Ali hajka pocinje, jer seljaci veruju da je taj samotnjak poklao ovce u jednom toru ...
 
 [download]
 utb

 



Thanked by 80 Members:

#2
tttrojannnn

tttrojannnn

    Bronze Member

  • Members
  • PipPipPipPip
  • 1,981 posts
  • 17773 thanks

Vuk samotnjak (1972) TVRip 720p x264-daredule

vuksamotnjak-.jpg

Režija: Obrad Gluščević
Scenario: Stjepan Perović, Obrad Gluščević

U glavnim ulogama:
Slavko Štimac, Željko Mataija, Ivan Štimac, Boro Ivanišević, Smiljan Cicić, Edo Peročević...
 

Opis:
Dečak u planini nalazi velikog psa sličnog vuku i sprijateljuje se sa njim. Međutim, seljani veruju da se radi o opasnom vuku, samotnjaku, i da ga treba ubiti. Dečak zbog toga strahuje za svog ljubimca. Krišom mu nosi hranu u planinu.
Pas ga jednom čak spasava od vuka. Ali hajka počinje, jer seljaci veruju da je taj samotnjak poklao ovce u jednom toru.

Ovaj popularni film Obrada Gluščevića osvojio je Srebrnu arenu i Jelena na Pulskom festivalu 1972. godine, a iste godine osvojio je i nagradu na više međunarodnih festivala: nagradu kinematografskih pisaca u Gijonu, prvu nagradu dečijeg žirija u Teheranu, nagradu španskog dečijeg centra „Jovellanos 72", nagradu za najbolji igrani film u Damasku i nagradu „Chauette" u Briselu.



Please Login or Register to see this Hidden Content



Vuk.samotnjak.1972.TVRip.720p.x264-daredule.mkv
Size: 476029448 bytes (453.98 MiB), duration: 01:18:57, avg.bitrate: 804 kb/s
Audio: aac, 24000 Hz, stereo, s16 (srp)
Video: h264, yuv420p, 1280x720, 25.00 fps® (srp)

vuksamotnjak1972tvrip720.jpg

Hidden Content
You'll be able to see the hidden content once you thank this post.

 




Edited by tttrojannnn, 05 February 2015 - 07:46.


Thanked by 92 Members:

#3
Wolf 13

Wolf 13

    Advanced Member

  • Members
  • PipPipPip
  • 426 posts
  • 33460 thanks
Vuk samotnjak (1972) MAXtv DD5.1 x264 by Wolf
(MKV) HQ
 
NPp37cg.jpg
 

Please Login or Register to see this Hidden Content

 

 

General
Unique ID                   : 51933131202641960692364821974529842612 (0x2711F50E437E21C196B528DA696B9DB4)
Complete name               : Vuk samotnjak (1972) MAXtv DD5.1 x264 by Wolf.mkv
Format                      : Matroska
Format version              : Version 4
File size                   : 999 MiB
Duration                    : 1 h 19 min
Overall bit rate            : 1 758 kb/s
Encoded date                : UTC 2019-01-30 12:06:23
Writing application         : mkvmerge v30.1.0 ('Forever And More') 64-bit
Writing library             : libebml v1.3.6 + libmatroska v1.4.9 / Lavf58.20.100
 
Video
ID                          : 1
Format                      : AVC
Format/Info                 : Advanced Video Codec
Format profile              : [email protected]
Format settings             : CABAC / 8 Ref Frames
Format settings, CABAC      : Yes
Format settings, ReFrames   : 8 frames
Codec ID                    : V_MPEG4/ISO/AVC
Duration                    : 1 h 19 min
Bit rate                    : 1 500 kb/s
Width                       : 720 pixels
Height                      : 576 pixels
Display aspect ratio        : 16:9
Original display aspect rat : 4:3
Frame rate mode             : Constant
Frame rate                  : 25.000 FPS
Standard                    : PAL
Color space                 : YUV
Chroma subsampling          : 4:2:0
Bit depth                   : 8 bits
Scan type                   : Progressive
Bits/(Pixel*Frame)          : 0.145
Stream size                 : 853 MiB (85%)
Title                       : Vuk samotnjak (1972)
Writing library             : x264 core 157 r2935 545de2f
Encoding settings           : cabac=1 / ref=8 / deblock=1:-1:-1 / analyse=0x3:0x133 / me=umh / subme=9 / psy=1 / psy_rd=1.00:0.15 / mixed_ref=1 / me_range=16 / chroma_me=1 / trellis=2 / 8x8dct=1 / cqm=0 / deadzone=21,11 / fast_pskip=1 / chroma_qp_offset=-3 / threads=6 / lookahead_threads=1 / sliced_threads=0 / nr=0 / decimate=1 / interlaced=0 / bluray_compat=0 / constrained_intra=0 / bframes=3 / b_pyramid=2 / b_adapt=2 / b_bias=0 / direct=3 / weightb=1 / open_gop=0 / weightp=2 / keyint=250 / keyint_min=25 / scenecut=40 / intra_refresh=0 / rc_lookahead=60 / rc=2pass / mbtree=1 / bitrate=1500 / ratetol=1.0 / qcomp=0.60 / qpmin=0 / qpmax=69 / qpstep=4 / cplxblur=20.0 / qblur=0.5 / vbv_maxrate=300000 / vbv_bufsize=300000 / nal_hrd=none / filler=0 / ip_ratio=1.40 / aq=1:1.00
Language                    : Croatian
Default                     : Yes
Forced                      : No
Color range                 : Limited
Color primaries             : BT.601 PAL
Transfer characteristics    : BT.709
Matrix coefficients         : BT.601
 
Audio
ID                          : 2
Format                      : E-AC-3
Format/Info                 : Enhanced AC-3
Commercial name             : Dolby Digital Plus
Codec ID                    : A_EAC3
Duration                    : 1 h 19 min
Bit rate mode               : Constant
Bit rate                    : 256 kb/s
Channel(s)                  : 6 channels
Channel layout              : L R C LFE Ls Rs
Sampling rate               : 48.0 kHz
Frame rate                  : 31.250 FPS (1536 SPF)
Compression mode            : Lossy
Delay relative to video     : -5 ms
Stream size                 : 146 MiB (15%)
Title                       : Vuk samotnjak (1972)
Language                    : Croatian
Service kind                : Complete Main
Default                     : Yes
Forced                      : No
 
epYscVA.png
Hidden Content
You'll be able to see the hidden content once you thank this post.
zbNKcak.jpg
Hidden Content
You'll be able to see the hidden content once you thank this post.
RZEPiSu.png
km95WWn.jpg
 
...Hvala Nikola

Edited by Wolf 13, 29 April 2019 - 12:07.


Thanked by 103 Members:

#4
Zoran_

Zoran_

    Gold Member

  • VIP
  • PipPipPipPipPipPip
  • 5,984 posts
  • 149354 thanks
Vuk Samotnjak (1972)
 
 
VukSamotnjak1972.png
 
imdb6.jpg
 

Please Login or Register to see this Hidden Content

 
Decak u planini nalazi velikog psa slicnog vuku i sprijateljuje se sa njim. Medjutim, seljani veruju da se radi o opasnom vuku, samotnjaku, i da ga treba ubiti. Decak zbog toga strahuje za svog ljubimca. Krisom mu nosi hranu u planinu. Pas ga jednom cak spasava od vuka. Ali hajka pocinje,jer seljaci veruju da je taj samotnjak poklao ovce u jednom toru... 
 
VukSamotnjak1972.avi.gif
 
VukSamotnjak1972.avi.jpg
 
downloade0cdd.gif
 
Vuk Samotnjak (1972) DVDRip
 
SFYUbuP.jpg
 
Hidden Content
You'll be able to see the hidden content once you thank this post.

Molbe za moje linkove, šaljite na PP.

 

Zabranjeno je kopiranje mojih linkova,reupload i postavljanje na druge forume!


Thanked by 59 Members:
deni993 , pliva , goransokolovic.fr , 10042013 , Gale92 , lilke , prviput , ptomic , zecozeco , AlwaysOs , dubstylerdub , dadovrana , james12320 , Josip49 , guzjan , MiraDr , elki69 , 777nik777 , johnrangel25 , mpelko , Stefi_1997 , AccccO , voje , kvikigrici , miki99 , scarto , jovica100 , balkankankan , r2d2 , radiopr , Jokso , Alamo74 , salgija , aca0808 , gor , Franci , myschko13 , twintip86 , mijazmija , pepe333 , kresomirovic , brankopapa , subzero123 , exile , olix78 , dragorobi , danep , filipsta2000 , novicanovica , kockari , jkorolija , JOOjo , baneiv , zoki71 , matematic , cigoyner , beograd1960' , Nebojsa1985 , Biotloneta

#5
nikolakralj100

nikolakralj100

    Advanced Member

  • Members
  • PipPipPip
  • 346 posts
  • 20542 thanks

Vuk samotnjak (1972) DVDr

 

SPtN1Mw.jpg

 

Decak u planini nalazi velikog psa slicnog vuku i sprijateljuje se sa njim. Medjutim, seljani veruju da se radi o opasnom vuku, samotnjaku, i da ga treba ubiti. Decak zbog toga strahuje za svog ljubimca. Krisom mu nosi hranu u planinu. Pas ga jednom cak spasava od vuka. Ali hajka pocinje,jer seljaci veruju da je taj samotnjak poklao ovce u jednom toru...

 

Hidden Content
You'll be able to see the hidden content once you thank this post.


Thanked by 33 Members:
milanalorica , deni993 , pliva , sub0 , Draxi , draganbauk , Josip49 , lilke , prviput , Edifier , montezuma , todosije , kockari , tailorPFC , kvikigrici , slavke , jovica100 , balkankankan , batman , Wolf 13 , polkica , Zelenac1 , goraneo , lovaccc , markometalac2 , 1zec , rafael13 , liquid , milanzivic , dragica , senilni , krabulja , Biotloneta



0 user(s) are reading this topic

0 members, 0 guests, 0 anonymous users