Jump to content

Dobrodošli na Balkandownload.org
Tražite domaće knjige, exyu magazine, sinhronizirane crtane filmove, PC i ostale igre, strane i domaće filmove, dokumentarce, stranu i domaću muziku, itd. ? Ne morate tražiti dalje jer sve ćete to naći kod nas, uredno postavljeno i spremno za download. Osim toga registracijom možete sudjelovati u raznim postojećim temama na forumu, otvarati nove teme, sudjelovati u chatu i još mnogo toga. Ako već imaš otvoren račun, logiraj se ovde ,a ako želiš saznati zašto smo najbolji otvori novi račun i uverite se sami :)
Photo

Karaula (2006)


3 replies to this topic

#1
Kokis

Kokis

    Advanced Member

  • Members
  • PipPipPip
  • 109 posts
  • 951 thanks

Karaula (2006)

 

p.png

 
 

Rezija: Rajko Grlic

Uloge: Sergej Trifunovic, Toni Gojanovic, Emir Hadžihafizbegovic, Bogdan Diklic, Verica Nedeska, Igor Bencina…

Opis: Komedija koja govori o nasoj proslosti bez nostalgije i mrznje. To je komicna prica o ljudima koji su na pragu tragedije. Radnja je smestena u 1987. godinu i odvija se u karauli na makedonsko-albanskoj granici. SFRJ broji svoje poslednje dane iako to zapravo jos uvek niko ne shvata a mozda i ne zeli da shvati. Neobican slucaj unosi nemir u svakodnevni vojnicki zivot: frustrirani i vecito pijani porucnik Safet Pasic oseca neobican bol na “privatnom mestu”. On poziva jedinog doktora medju vojnicima, Sinisu, koji u diskreciji pronalazi polnu bolest. Pokusavajuci da pronadje nacin da sakrije svoju neprijatnu situaciju, a jos vise da bi izbegao odsustvo zbog bolesti, Pasic objavljuje stanje opasnosti na granici tvrdeci da se armija Albanije sprema za napad. Burleska se pretvara u ratnu psihozu, vojnici kopaju rovove. Pasic je izgubio kontrolu i iz dana u dan sve je gori. Sinisa je umesan u opasnu ljubavnu avanturu a njegov najbolji prijatelj Ljuba Lalovic cvrsto odlucuje da napusti vojsku. Polako, cela situacija izmice kontroli…

 
 

Please Login or Register to see this Hidden Content

 

 
 



Thanked by 98 Members:

#2
Wolf 13

Wolf 13

    Advanced Member

  • Members
  • PipPipPip
  • 426 posts
  • 33609 thanks
Karaula (2006) DVDrip AC3 5.1 x264 by Wolf
(MKV) HQ
 
nDKsZWo.jpg
 

Please Login or Register to see this Hidden Content

 

General
Unique ID                   : 28567079297616384346120629092092229261 (0x157DD1C08C3D3C83D3057DC7A4E4368D)
Complete name               : Karaula (2006) DVDrip AC3 5.1 x264 by Wolf.mkv
Format                      : Matroska
Format version              : Version 4
File size                   : 1.11 GiB
Duration                    : 1 h 30 min
Overall bit rate            : 1 758 kb/s
Encoded date                : UTC 2019-01-18 12:07:07
Writing application         : mkvmerge v30.1.0 ('Forever And More') 64-bit
Writing library             : libebml v1.3.6 + libmatroska v1.4.9 / Lavf58.20.100
 
Video
ID                          : 1
Format                      : AVC
Format/Info                 : Advanced Video Codec
Format profile              : [email protected]
Format settings             : CABAC / 8 Ref Frames
Format settings, CABAC      : Yes
Format settings, ReFrames   : 8 frames
Codec ID                    : V_MPEG4/ISO/AVC
Duration                    : 1 h 30 min
Bit rate                    : 1 500 kb/s
Width                       : 718 pixels
Height                      : 416 pixels
Display aspect ratio        : 16:9
Original display aspect rat : 1.85:1
Frame rate mode             : Constant
Frame rate                  : 25.000 FPS
Color space                 : YUV
Chroma subsampling          : 4:2:0
Bit depth                   : 8 bits
Scan type                   : Progressive
Bits/(Pixel*Frame)          : 0.201
Stream size                 : 973 MiB (85%)
Title                       : Karaula (2006)
Writing library             : x264 core 157 r2935 545de2f
Encoding settings           : cabac=1 / ref=8 / deblock=1:-1:-1 / analyse=0x3:0x133 / me=umh / subme=9 / psy=1 / psy_rd=1.00:0.15 / mixed_ref=1 / me_range=16 / chroma_me=1 / trellis=2 / 8x8dct=1 / cqm=0 / deadzone=21,11 / fast_pskip=1 / chroma_qp_offset=-3 / threads=6 / lookahead_threads=1 / sliced_threads=0 / nr=0 / decimate=1 / interlaced=0 / bluray_compat=0 / constrained_intra=0 / bframes=3 / b_pyramid=2 / b_adapt=2 / b_bias=0 / direct=3 / weightb=1 / open_gop=0 / weightp=2 / keyint=250 / keyint_min=25 / scenecut=40 / intra_refresh=0 / rc_lookahead=60 / rc=2pass / mbtree=1 / bitrate=1500 / ratetol=1.0 / qcomp=0.60 / qpmin=0 / qpmax=69 / qpstep=4 / cplxblur=20.0 / qblur=0.5 / vbv_maxrate=300000 / vbv_bufsize=300000 / nal_hrd=none / filler=0 / ip_ratio=1.40 / aq=1:1.00
Language                    : Serbian
Default                     : Yes
Forced                      : No
Color range                 : Limited
Color primaries             : BT.601 PAL
Transfer characteristics    : BT.709
Matrix coefficients         : BT.601
 
Audio
ID                          : 2
Format                      : E-AC-3
Format/Info                 : Enhanced AC-3
Commercial name             : Dolby Digital Plus
Codec ID                    : A_EAC3
Duration                    : 1 h 30 min
Bit rate mode               : Constant
Bit rate                    : 256 kb/s
Channel(s)                  : 6 channels
Channel layout              : L R C LFE Ls Rs
Sampling rate               : 48.0 kHz
Frame rate                  : 31.250 FPS (1536 SPF)
Compression mode            : Lossy
Delay relative to video     : -45 ms
Stream size                 : 166 MiB (15%)
Title                       : Karaula (2006)
Language                    : Serbian
Service kind                : Complete Main
Default                     : Yes
Forced                      : No
 
epYscVA.png
Hidden Content
You'll be able to see the hidden content once you thank this post.
 
z54Vp8I.png
2aHicHK.jpg

Edited by Wolf 13, 18 January 2019 - 15:02.


Thanked by 293 Members:

#3
nikolakralj100

nikolakralj100

    Advanced Member

  • Members
  • PipPipPip
  • 346 posts
  • 20625 thanks

DVDr

 

rZDL6z2.jpg

 

Hidden Content
You'll be able to see the hidden content once you thank this post.

 

 

UPLOAD: CarDushan1982


Edited by nikolakralj100, 24 August 2017 - 18:41.


Thanked by 211 Members:

#4
Zoran_

Zoran_

    Gold Member

  • VIP
  • PipPipPipPipPipPip
  • 5,990 posts
  • 149783 thanks
Karaula (2006)
 
 
akAXZB9.png
 
BAp9yLu.jpg
 

Please Login or Register to see this Hidden Content

 
Komedija koja bez nostalgije i mržnje govori o našoj prošlosti. To je komična priča o ljudima koji su na pragu tragedije. Radnja je smeštena u 1987. godinu i odvija se u karauli na makedonsko-albanskoj granici.SFRJ broji svoje poslednje dane, iako to zapravo još uvek niko ne shvata, a možda i ne želi da shvati. Neobičan slučaj unosi nemir u svakodnevni vojnički život: frustrirani i večito pijani poručnik Safet Pašić oseća neobičan bol na "privatnom mestu". On poziva jedinog doktora među vojnicima, Sinišu, koji u diskreciji dijagnostikuje polnu bolest.Pokušavajući da pronađe način da sakrije svoju neprijatnu situaciju, a još više da izbegne odsustvo zbog bolesti, Pašić objavljuje stanje opasnosti na granici, tvrdeći da se albanska armija sprema za napad.Burleska se pretvara u ratnu psihozu, vojnici kopaju rovove. Pašić je izgubio kontrolu i iz dana u dan je sve gori. Siniša je umešan u opasnu ljubavnu avanturu, a njegov najbolji prijatelj, Ljuba Lalović, čvrsto odlučuje da napusti vojsku. Cela situacija polako izmiče kontroli.
 
1wvdnahimx1.png
 
KbbTriB.gif
 
GDBT6RQ.jpg
 
eq4kitc.gif
 
Karaula (2006) DVDRip.x264.mkv
 
SFYUbuP.jpg
 
Hidden Content
You'll be able to see the hidden content once you thank this post.

Molbe za moje linkove, šaljite na PP.

 

Zabranjeno je kopiranje mojih linkova,reupload i postavljanje na druge forume!


Thanked by 137 Members:



0 user(s) are reading this topic

0 members, 0 guests, 0 anonymous users