Jump to content

Dobrodošli na Balkandownload.org
Tražite domaće knjige, exyu magazine, sinhronizirane crtane filmove, PC i ostale igre, strane i domaće filmove, dokumentarce, stranu i domaću muziku, itd. ? Ne morate tražiti dalje jer sve ćete to naći kod nas, uredno postavljeno i spremno za download. Osim toga registracijom možete sudjelovati u raznim postojećim temama na forumu, otvarati nove teme, sudjelovati u chatu i još mnogo toga. Ako već imaš otvoren račun, logiraj se ovde ,a ako želiš saznati zašto smo najbolji otvori novi račun i uverite se sami :)
Photo

Lea i Darija (2011)


2 replies to this topic

#1
Tobacco Road

Tobacco Road

    The Warez GOD

  • Tobacco
  • PipPipPipPipPipPipPipPipPipPip
  • 23,347 posts
  • 993393 thanks
  • Locationscrls

Lea.i.Darija.2011.DVDrip.x264.by.W


Lea_i_Darija_1335538024_2011.jpg
 
 
 

Please Login or Register to see this Hidden Content

 
 
 
 

Reditelj: Branko Ivanda
Scenarista: Drago Kekanovic
Zanr: Drama, Ratni
Godina: 2011

Uloge: Klara Naka, Tamy Zajec, Zrinka Cvitešic, Linda Begonja, Sebastian Cavazza, Dražen Cucek, Vedran Živolic, Višnja Babic, Ana Vilenica i Duško Valentic.

Prica prati stvarnu sudbinu devojcice Lee Deutch i njene porodice u Zagrebu 30-ih i 40-ih godina. Mala Lea bila je pravo cudo od deteta; glumila je, plesala i pevala u HNK; kritika i publika ju je obožavala, kao i njenu najbolju prijateljicu Dariju Gasteiger, „hrvatsku Shierly Temple“. Medjutim, zbog svog jevrejskog porekla, mala Lea će biti deportovana i umreće u vozu za Auswitz 1943.


Velicina: 347 MB
Video: mkv | 592×320 |
Audio: Croatian | AAC |

Screen

eKbKdWN.jpg


Download
 
 


 

 

Kako skinuti nesto sa Balkandownload-a?

www.slideshare.net/bd4yu/kako-skidati-fajlove-sa-balkan-download-a

Kako da pronadjete zeljeni sadrzaj na forumu? 

www.balkandownload.org/topic/40428-kako-pronaci-zeljeni-sadrzaj-na-forumu/

Najmračniji krugovi pakla su rezervisani za one koji u vremenima moralne krize ostanu neutralni i suzdržani -Dante Alighieri


Thanked by 16 Members:
neprilagođen , CoolHandLuke893 , rakia1960 , manulka , IdeMile , JasminaNOVA , vladimirbabic , zoki71 , slavorkc , enterhak , kresomirovic , magicmag , Virni , Wolf 13 , Kitanik , violina249

#2
Wolf 13

Wolf 13

    Advanced Member

  • Members
  • PipPipPip
  • 426 posts
  • 33395 thanks
Lea i Darija (2011) DVDrip AC3 5.1 x264 by Wolf
(MKV) HQ
 
1dNkNbq.jpg
 

Please Login or Register to see this Hidden Content

 

General
Unique ID                   : 265710957329054458665729515913487295318 (0xC7E611A5363AAA58F6E6D1ED2C6BA356)
Complete name               : Lea i Darija (2011) DVDrip AC3 5.1 x264 by Wolf.mkv
Format                      : Matroska
Format version              : Version 4 / Version 2
File size                   : 1.24 GiB
Duration                    : 1 h 41 min
Overall bit rate            : 1 757 kb/s
Encoded date                : UTC 2018-12-08 14:53:14 / UTC 2018-12-08T11:29:21Z
Writing application         : mkvmerge v29.0.0 ('Like It Or Not') 64-bit
Writing library             : libebml v1.3.6 + libmatroska v1.4.9 / Lavf57.7.2
 
Video
ID                          : 1
Format                      : AVC
Format/Info                 : Advanced Video Codec
Format profile              : [email protected]
Format settings             : CABAC / 8 Ref Frames
Format settings, CABAC      : Yes
Format settings, ReFrames   : 8 frames
Codec ID                    : V_MPEG4/ISO/AVC
Duration                    : 1 h 41 min
Bit rate                    : 1 500 kb/s
Width                       : 720 pixels
Height                      : 540 pixels
Display aspect ratio        : 1.896
Frame rate mode             : Constant
Frame rate                  : 25.000 FPS
Color space                 : YUV
Chroma subsampling          : 4:2:0
Bit depth                   : 8 bits
Scan type                   : Progressive
Bits/(Pixel*Frame)          : 0.154
Stream size                 : 1.03 GiB (83%)
Title                       : Lea i Darija (2011)
Writing library             : x264 core 155 r2901 7d0ff22
Encoding settings           : cabac=1 / ref=8 / deblock=1:-1:-1 / analyse=0x3:0x133 / me=umh / subme=9 / psy=1 / psy_rd=1.00:0.15 / mixed_ref=1 / me_range=16 / chroma_me=1 / trellis=2 / 8x8dct=1 / cqm=0 / deadzone=21,11 / fast_pskip=1 / chroma_qp_offset=-3 / threads=6 / lookahead_threads=1 / sliced_threads=0 / nr=0 / decimate=1 / interlaced=0 / bluray_compat=0 / constrained_intra=0 / bframes=3 / b_pyramid=2 / b_adapt=2 / b_bias=0 / direct=3 / weightb=1 / open_gop=0 / weightp=2 / keyint=250 / keyint_min=25 / scenecut=40 / intra_refresh=0 / rc_lookahead=60 / rc=2pass / mbtree=1 / bitrate=1500 / ratetol=1.0 / qcomp=0.60 / qpmin=0 / qpmax=69 / qpstep=4 / cplxblur=20.0 / qblur=0.5 / vbv_maxrate=300000 / vbv_bufsize=300000 / nal_hrd=none / filler=0 / ip_ratio=1.40 / aq=1:1.00
Language                    : Croatian
Default                     : Yes
Forced                      : No
Color range                 : Limited
Color primaries             : BT.601 PAL
Transfer characteristics    : BT.709
Matrix coefficients         : BT.601
Statistics Tags Issue       : mkvmerge v29.0.0 ('Like It Or Not') 64-bit 2018-12-08 14:53:14 / mkvmerge v29.0.0 ('Like It Or Not') 64-bit 2018-12-08 14:53:14 / UTC 2018-12-08T11:29:21Z
FromStats_BitRate           : 1499757
FromStats_Duration          : 01:41:01.000000000
FromStats_FrameCount        : 151525
FromStats_StreamSize        : 1136253516
 
Audio
ID                          : 2
Format                      : E-AC-3
Format/Info                 : Enhanced Audio Coding 3
Codec ID                    : A_EAC3
Duration                    : 1 h 41 min
Bit rate mode               : Constant
Bit rate                    : 256 kb/s
Channel(s)                  : 6 channels
Channel positions           : Front: L C R, Side: L R, LFE
Sampling rate               : 48.0 kHz
Frame rate                  : 187.500 FPS (256 SPF)
Compression mode            : Lossy
Delay relative to video     : -5 ms
Stream size                 : 185 MiB (15%)
Title                       : Lea i Darija (2011)
Language                    : Croatian
Service kind                : Complete Main
Default                     : Yes
Forced                      : No
Statistics Tags Issue       : mkvmerge v29.0.0 ('Like It Or Not') 64-bit 2018-12-08 14:53:14 / mkvmerge v29.0.0 ('Like It Or Not') 64-bit 2018-12-08 14:53:14 / UTC 2018-12-08T11:29:21Z
FromStats_BitRate           : 256000
FromStats_Duration          : 01:41:02.368000000
FromStats_FrameCount        : 189449
FromStats_StreamSize        : 193995776
 
Text
ID                          : 3
Format                      : UTF-8
Codec ID                    : S_TEXT/UTF8
Codec ID/Info               : UTF-8 Plain Text
Title                       : LEA  I  DARIJA
Language                    : Serbian
Default                     : Yes
Forced                      : No
Statistics Tags Issue       : mkvmerge v29.0.0 ('Like It Or Not') 64-bit 2018-12-08 14:53:14 / mkvmerge v29.0.0 ('Like It Or Not') 64-bit 2018-12-08 14:53:14 / UTC 2018-12-08T11:29:21Z
FromStats_BitRate           : 3
FromStats_Duration          : 01:30:16.874000000
FromStats_FrameCount        : 77
FromStats_StreamSize        : 2164
 
epYscVA.png
Hidden Content
You'll be able to see the hidden content once you thank this post.
 
Gftqm7F.png
G0EZVoF.jpg

Edited by Wolf 13, 08 December 2018 - 19:44.


Thanked by 36 Members:
alexva , CoolHandLuke893 , lilke , rakia1960 , manulka , IdeMile , chefko , BeBoy , kockari , zoki71 , 8C805w , Homss , icaleptir , danijeladanijel , soska413 , draganiuss , js1984 , radonja86 , kresomirovic , alando9 , millevoy , akiro , Aquavald , rasaz , danep , papak333 , mihneaseerg901 , blazenko72 , mikula11 , Prene , grof65 , laci974 , Miki_Kiki_Riki , krabulja , sabor , Usualman

#3
Zoran_

Zoran_

    Gold Member

  • VIP
  • PipPipPipPipPipPip
  • 5,984 posts
  • 149238 thanks
Lea i Darija (2011)
 
 
LeaiDarija2011.png
 
Su6Ksi6.jpg
 

Please Login or Register to see this Hidden Content

 
Prica prati stvarnu sudbinu djevojcice Lee Deutch i njezine obitelji u Zagrebu 30-ih i 40-ih godina. Mala Lea bila je pravo cudo od djeteta; glumila je, plesala i pjevala u HNK; kritika i publika ju je obožavala, kao i njenu najbolju prijateljicu Dariju Gasteiger, „hrvatsku Shierly Temple“. Medjutim, zbog svog židovskog podrijetla, mala Lea biva deportirana te umire u vlaku za Auswitz 1943.
 
LeaiDarija2011.avi.gif
 
LeaiDarija2011.avi.jpg
 
Oets6ur.gif
 
Lea i Darija (2011) DVDRip avi
 
SFYUbuP.jpg
 
Hidden Content
You'll be able to see the hidden content once you thank this post.

Molbe za moje linkove, šaljite na PP.

 

Zabranjeno je kopiranje mojih linkova,reupload i postavljanje na druge forume!


Thanked by 28 Members:
Ivan2010 , alexva , neprilagođen , banecar50 , mikula11 , CoolHandLuke893 , mihneaseerg901 , Verdeja , rakia1960 , manulka , IdeMile , chefko , Newbie , miniandro , kanki , kockari , Cocco Bill , zoran48 , voje , draganiuss , JasminaNOVA , vladimirbabic , herc001yu , nesom , Jokso , Miki_Kiki_Riki , ***13 , miki-maus23



0 user(s) are reading this topic

0 members, 0 guests, 0 anonymous users