Jump to content

Dobrodošli na Balkandownload.org
Tražite domaće knjige, exyu magazine, sinhronizirane crtane filmove, PC i ostale igre, strane i domaće filmove, dokumentarce, stranu i domaću muziku, itd. ? Ne morate tražiti dalje jer sve ćete to naći kod nas, uredno postavljeno i spremno za download. Osim toga registracijom možete sudjelovati u raznim postojećim temama na forumu, otvarati nove teme, sudjelovati u chatu i još mnogo toga. Ako već imaš otvoren račun, logiraj se ovde ,a ako želiš saznati zašto smo najbolji otvori novi račun i uverite se sami :)
Photo

Ustanicka Ulica (2012)


3 replies to this topic

#1
Tobacco Road

Tobacco Road

    The Warez GOD

  • Tobacco
  • PipPipPipPipPipPipPipPipPipPip
  • 23,347 posts
  • 992986 thanks
  • Locationscrls

Ustanička Ulica (2012) DVDRip x264


50d5e5439d041.jpg



Please Login or Register to see this Hidden Content



Režija: Miroslav Terzić
Uloge: Gordan Kičić , Jelena Đokić , Milica Mihajlović , Predrag Ejdus , Rade Šerbedžija , Uliks Fehmiu
godina proizvodnje: 2012

Priča filma prati mladog asistenta tužioca za ratne zločine Dušana Ilića, koji posle godinu dana staža napokon dobija svoj prvi slučaj, ali mora da ga drži u strogoj tajnosti. Predmet koji je uručen Dušanu je naizgled zatvoren i smatran kao zastareli slučaj, ali ono što će naš protagonista ovde pronaći će mu zauvek promeniti život. Dušan ubrzo uočava da su dokazi nepotpuni i da su velike zavere ovim paravanom zataškane. Spletom okolnosti, Dušan nailazi na čoveka koji pored toga što je smatran mrtvim, predstavlja ključni deo slagalice koji će mu otvoriti oči kakvi se sve ulozi i igrači kriju iza ove zavere.


Screen

50d5f171115c9.jpg




 

 

 

Kako skinuti nesto sa Balkandownload-a?

www.slideshare.net/bd4yu/kako-skidati-fajlove-sa-balkan-download-a

Kako da pronadjete zeljeni sadrzaj na forumu? 

www.balkandownload.org/topic/40428-kako-pronaci-zeljeni-sadrzaj-na-forumu/

Najmračniji krugovi pakla su rezervisani za one koji u vremenima moralne krize ostanu neutralni i suzdržani -Dante Alighieri


Thanked by 52 Members:
kikomkd85 , Nes* , MarkoM99 , MiksaNS , andprl , rubiel , DACK , Dr_Vitez , Petard32 , bure , sanj89 , sale83 , ljudozderka8 , dulkos , daniveka , kivan1 , dadisajo , mmilann , joska12 , pedjatop , dragan9brus , buterfly80 , milicfilip , Inche , nikola kojovic , deni993 , tosveeeee , tijana91 , martin mcfly , kresomirovic , Cirkesa , Malizmaj , ZvoncicaBGD84 , željo , Avelj55 , kormi17 , nanoimimi , Ilija.k , aksi19 , bagirin , sopran019 , zagortnt , Frooster , ana&jana , KOMIŽA , Bajoman , pinter , DiscoTheNinja , bari84 , KayserSoze , lepenac123 , simpi1911

#2
Wolf 13

Wolf 13

    Advanced Member

  • Members
  • PipPipPip
  • 426 posts
  • 33355 thanks
Ustanicka ulica (2012) DVDrip AC3 5.1 x264 by Wolf
(MKV) HQ
 
B3XSvGF.jpg
 

Please Login or Register to see this Hidden Content

 

General
Unique ID                   : 76824350659257258102211237948500481713 (0x39CBD4ECDD8103A54CBBC355EB8C16B1)
Complete name               : Ustanicka ulica (2012) DVDrip AC3 5.1 x264 by Wolf.mkv
Format                      : Matroska
Format version              : Version 4
File size                   : 1.16 GiB
Duration                    : 1 h 34 min
Overall bit rate            : 1 758 kb/s
Encoded date                : UTC 2018-12-25 11:03:18 / UTC 2018-12-25T09:04:53Z
Writing application         : mkvmerge v29.0.0 ('Like It Or Not') 64-bit
Writing library             : libebml v1.3.6 + libmatroska v1.4.9 / Lavf57.7.2
 
Video
ID                          : 1
Format                      : AVC
Format/Info                 : Advanced Video Codec
Format profile              : [email protected]
Format settings             : CABAC / 8 Ref Frames
Format settings, CABAC      : Yes
Format settings, ReFrames   : 8 frames
Codec ID                    : V_MPEG4/ISO/AVC
Duration                    : 1 h 34 min
Bit rate                    : 1 500 kb/s
Width                       : 718 pixels
Height                      : 428 pixels
Display aspect ratio        : 2.40:1
Frame rate mode             : Constant
Frame rate                  : 25.000 FPS
Color space                 : YUV
Chroma subsampling          : 4:2:0
Bit depth                   : 8 bits
Scan type                   : Progressive
Bits/(Pixel*Frame)          : 0.195
Stream size                 : 990 MiB (83%)
Title                       : Ustanicka ulica (2012)
Writing library             : x264 core 155 r2901 7d0ff22
Encoding settings           : cabac=1 / ref=8 / deblock=1:-1:-1 / analyse=0x3:0x133 / me=umh / subme=9 / psy=1 / psy_rd=1.00:0.15 / mixed_ref=1 / me_range=16 / chroma_me=1 / trellis=2 / 8x8dct=1 / cqm=0 / deadzone=21,11 / fast_pskip=1 / chroma_qp_offset=-3 / threads=6 / lookahead_threads=1 / sliced_threads=0 / nr=0 / decimate=1 / interlaced=0 / bluray_compat=0 / constrained_intra=0 / bframes=3 / b_pyramid=2 / b_adapt=2 / b_bias=0 / direct=3 / weightb=1 / open_gop=0 / weightp=2 / keyint=250 / keyint_min=25 / scenecut=40 / intra_refresh=0 / rc_lookahead=60 / rc=2pass / mbtree=1 / bitrate=1500 / ratetol=1.0 / qcomp=0.60 / qpmin=0 / qpmax=69 / qpstep=4 / cplxblur=20.0 / qblur=0.5 / vbv_maxrate=300000 / vbv_bufsize=300000 / nal_hrd=none / filler=0 / ip_ratio=1.40 / aq=1:1.00
Language                    : Serbian
Default                     : Yes
Forced                      : No
Color range                 : Limited
Color primaries             : BT.601 PAL
Transfer characteristics    : BT.709
Matrix coefficients         : BT.601
Statistics Tags Issue       : mkvmerge v29.0.0 ('Like It Or Not') 64-bit 2018-12-25 11:03:18 / mkvmerge v29.0.0 ('Like It Or Not') 64-bit 2018-12-25 11:03:18 / UTC 2018-12-25T09:04:53Z
FromStats_BitRate           : 1499782
FromStats_Duration          : 01:34:23.920000000
FromStats_FrameCount        : 141598
FromStats_StreamSize        : 1061830851
 
Audio
ID                          : 2
Format                      : AC-3
Format/Info                 : Audio Coding 3
Commercial name             : Dolby Digital
Codec ID                    : A_AC3
Duration                    : 1 h 34 min
Bit rate mode               : Constant
Bit rate                    : 256 kb/s
Channel(s)                  : 6 channels
Channel layout              : L R C LFE Ls Rs
Sampling rate               : 48.0 kHz
Frame rate                  : 31.250 FPS (1536 SPF)
Bit depth                   : 16 bits
Compression mode            : Lossy
Stream size                 : 173 MiB (15%)
Title                       : Ustanicka ulica (2012)
Language                    : Serbian
Service kind                : Complete Main
Default                     : Yes
Forced                      : No
Statistics Tags Issue       : mkvmerge v29.0.0 ('Like It Or Not') 64-bit 2018-12-25 11:03:18 / mkvmerge v29.0.0 ('Like It Or Not') 64-bit 2018-12-25 11:03:18 / UTC 2018-12-25T09:04:53Z
FromStats_BitRate           : 256000
FromStats_Duration          : 01:34:23.904000000
FromStats_FrameCount        : 176997
FromStats_StreamSize        : 181244928
 
epYscVA.png
Hidden Content
You'll be able to see the hidden content once you thank this post.
 
pORrGGO.png
E4nDcCn.jpg

Edited by Wolf 13, 26 December 2018 - 13:39.


Thanked by 140 Members:

#3
nikolakralj100

nikolakralj100

    Advanced Member

  • Members
  • PipPipPip
  • 346 posts
  • 20492 thanks

DVDr

 

lFO9nXn.jpg

 

xoUrBnT.jpg

 

Hidden Content
You'll be able to see the hidden content once you thank this post.


Thanked by 72 Members:
milanns , kikomkd85 , egzo88 , 303808909 , MarkoM99 , MiksaNS , andprl , Dijana1974 , Nes* , satyr83 , internetcaffe , rubiel , DACK , mosaljoze10 , prijelospomakom , Petard32 , ABoriganal , sale83 , skoksac , dulkos , sr61 , anchez84 , FlegmaFX , Azada , gregl , stteffann , FAKIbaba , mmilann , joska12 , pedjatop , rafael13 , Calisto , MEDISONGARDEN , dragan9brus , konami , Homss , liquid , pcbbata , Zelenac1 , zorandju , milicfilip , dacha1986 , iamzlatan , felixmont , dragina , turbo-balkaneze , draganiuss , neprilagođen , Xul666 , danijeladanijel , 2look4 , Jarmush , Zare94 , martin mcfly , solozzo , meta , dajver , AMISTAD1234 , Hornet_UE , DenisBan , draganadragana2010 , peteropan , keops87 , brankoz13 , sevastijan64 , kormi17 , capan , nesaparty , emotivac , Wolf 13 , mikula11 , rango343

#4
Zoran_

Zoran_

    Gold Member

  • VIP
  • PipPipPipPipPipPip
  • 5,984 posts
  • 149159 thanks
Ustanicka ulica (2012)
 
 
d56EUn8.png
 
Su6Ksi6.jpg
 

Please Login or Register to see this Hidden Content

 
Mladi tužilac dobija slucaj koji mora da drži u najvecoj tajnosti. Dosije koji mu dospeva u ruke, krije jezive tajne a klupko zlocina pocinje da se odmotava i vodi jako visoko, tamo gde niko do sada nije mogao doci. Ko je Grbavi, ko koga prati, ko je u smrtnoj opasnosti, ko je kriv a ko nedužan. Sumnje zamenika tužioca pokazuju se opravdanim, on više ne zna kome može da veruje. Ipak, odlucan je da stvar dovede do kraja iako se opasnost krije iza svakih vrata na koja pokuca...U ovoj igri sve je dozvoljeno a sam covek je laka meta...
 
01ev7cv7ppq.png
 
kPORjv4.gif
 
aP2IR0c.jpg
 
Oets6ur.gif
 
Ustanicka ulica (2012) DVDRip.x264.mkv
 
SFYUbuP.jpg
 
Hidden Content
You'll be able to see the hidden content once you thank this post.

Molbe za moje linkove, šaljite na PP.

 

Zabranjeno je kopiranje mojih linkova,reupload i postavljanje na druge forume!


Thanked by 58 Members:
milanns , egzo88 , pijanist , 303808909 , goransokolovic.fr , MarkoM99 , snupix , MiksaNS , Irinas , Verdeja , zorandju , Nes* , lestrejndz , rubiel , wax1na , james12320 , DACK , zoxkg , kanalplus , talicni , mosaljoze10 , thepilgrim , Dr_Vitez , 23ninje , prijelospomakom , Petard32 , cile10 , skoksac , jimjarmusch , Inche , milosst , pedjatop , ljudozderka8 , dulkos , kockari , anchez84 , noviclan11 , dadisajo , gregl , FAKIbaba , joska12 , Alamo74 , Cocco Bill , satserb , MEDISONGARDEN , dragan9brus , Anoreksik , konami , oxxo2206 , AccccO , Gorolomac , voinac , zoran48 , Milfir , nu_zajc , Miki_Kiki_Riki , Jokso , vlaha8



0 user(s) are reading this topic

0 members, 0 guests, 0 anonymous users