Jump to content

Dobrodošli na Balkandownload.org
Tražite domaće knjige, exyu magazine, sinhronizirane crtane filmove, PC i ostale igre, strane i domaće filmove, dokumentarce, stranu i domaću muziku, itd. ? Ne morate tražiti dalje jer sve ćete to naći kod nas, uredno postavljeno i spremno za download. Osim toga registracijom možete sudjelovati u raznim postojećim temama na forumu, otvarati nove teme, sudjelovati u chatu i još mnogo toga. Ako već imaš otvoren račun, logiraj se ovde ,a ako želiš saznati zašto smo najbolji otvori novi račun i uverite se sami :)
Photo

Braca po materi (1988)


2 replies to this topic

#1
MaliGrizeBeton

MaliGrizeBeton

    Silver Member

  • Members
  • PipPipPipPipPip
  • 2,524 posts
  • 22630 thanks

Braca po materi (1988)

 

 

 
 



Thanked by 20 Members:
micelj , dejanelo68 , hakfin , Bontonko , skrbiczoran , mari marko , Stefi_1997 , balkan.marko , Georgnolimit , vajtaun , kresomirovic , nenad72yu , BranimirBarnak , sneki811 , irena_nc , je3epoje3epo , butas , Daachoo , vkmiro , sasa80ks

#2
Zoran_

Zoran_

    Gold Member

  • VIP
  • PipPipPipPipPipPip
  • 5,990 posts
  • 149802 thanks
Braca po materi (1988)
 
ngO21eK.png
 
imdb6.jpg
 

Please Login or Register to see this Hidden Content

 
Isprovociran, Veselin na maturskoj svecanosti ubije svog vrsnjaka. U zatvoru dobije pismo od polubrata, politickog emigranta iz Austrije. Pocinje dopisivanje i polubrat mu prica o Dalmatinskoj Zagori krajem tridesetih godina kad je rodjen iz braka majke Srpkinje i oca Hrvata, koji se 1941.godine pridruzuje ustasama i gine. Posle rata majka se udaje za prvoborca iz srpskog sela i radja se Veselin, a njega i dalje prati obelezje da je sin ustase. Bezi preko granice i pridruzuje se ustaskom pokretu u Austriji. Kroz te kontakte njihovi odnosi evoluiraju: od nepoverenja i odbojnosti pripadnika dva razlicita sveta i sistema, do onoga sto ih vezuje, a to je da su braca po materi i da se svaki na svoj nacin ogresio o zakone drustva.
 
2kfu357dw7.png
 
dColWYU.gif
 
Iu297eR.jpg
 
downloade0cdd.gif
 
Braca po materi (1988) DVDRip.x264.mkv
 
SFYUbuP.jpg
 
Hidden Content
You'll be able to see the hidden content once you thank this post.

Molbe za moje linkove, šaljite na PP.

 

Zabranjeno je kopiranje mojih linkova,reupload i postavljanje na druge forume!


Thanked by 83 Members:

#3
Wolf 13

Wolf 13

    Advanced Member

  • Members
  • PipPipPip
  • 426 posts
  • 33612 thanks
Braca po materi (1988) DVDrip DD5.1 x264 by Wolf
(MKV)
 
ZzSttwG.jpg
 

Please Login or Register to see this Hidden Content

 

General
Unique ID                   : 70761581597801851384369264449146388087 (0x353C2F55069AC945FBBDEF988C6CFE77)
Complete name               : Braca po materi (1988) DVDrip DD5.1 x264 by Wolf.mkv
Format                      : Matroska
Format version              : Version 4
File size                   : 1.11 GiB
Duration                    : 1 h 25 min
Overall bit rate            : 1 856 kb/s
Encoded date                : UTC 2019-04-30 15:11:28
Writing application         : mkvmerge v33.1.0 ('Primrose') 64-bit
Writing library             : libebml v1.3.7 + libmatroska v1.5.0 / Lavf58.20.100
 
Video
ID                          : 1
Format                      : AVC
Format/Info                 : Advanced Video Codec
Format profile              : [email protected]
Format settings             : CABAC / 16 Ref Frames
Format settings, CABAC      : Yes
Format settings, ReFrames   : 16 frames
Codec ID                    : V_MPEG4/ISO/AVC
Duration                    : 1 h 25 min
Bit rate                    : 1 600 kb/s
Width                       : 686 pixels
Height                      : 420 pixels
Display aspect ratio        : 16:9
Original display aspect rat : 3:2
Frame rate mode             : Variable
Frame rate                  : 29.970 (29970/1000) FPS
Color space                 : YUV
Chroma subsampling          : 4:2:0
Bit depth                   : 8 bits
Scan type                   : Progressive
Bits/(Pixel*Frame)          : 0.185
Stream size                 : 978 MiB (86%)
Title                       : Braca po materi (1988)
Writing library             : x264 core 157 r2935 545de2f
Encoding settings           : cabac=1 / ref=16 / deblock=1:-1:-1 / analyse=0x3:0x133 / me=umh / subme=10 / psy=1 / psy_rd=1.00:0.15 / mixed_ref=1 / me_range=24 / chroma_me=1 / trellis=2 / 8x8dct=1 / cqm=0 / deadzone=21,11 / fast_pskip=1 / chroma_qp_offset=-3 / threads=6 / lookahead_threads=1 / sliced_threads=0 / nr=0 / decimate=1 / interlaced=0 / bluray_compat=0 / constrained_intra=0 / bframes=8 / b_pyramid=2 / b_adapt=2 / b_bias=0 / direct=3 / weightb=1 / open_gop=0 / weightp=2 / keyint=300 / keyint_min=30 / scenecut=40 / intra_refresh=0 / rc_lookahead=60 / rc=2pass / mbtree=1 / bitrate=1600 / ratetol=1.0 / qcomp=0.60 / qpmin=0 / qpmax=69 / qpstep=4 / cplxblur=20.0 / qblur=0.5 / vbv_maxrate=300000 / vbv_bufsize=300000 / nal_hrd=none / filler=0 / ip_ratio=1.40 / aq=1:1.00
Language                    : Serbian
Default                     : Yes
Forced                      : No
Color range                 : Limited
Color primaries             : BT.601 PAL
Transfer characteristics    : BT.709
Matrix coefficients         : BT.601
 
Audio
ID                          : 2
Format                      : E-AC-3
Format/Info                 : Enhanced AC-3
Commercial name             : Dolby Digital Plus
Codec ID                    : A_EAC3
Duration                    : 1 h 25 min
Bit rate mode               : Constant
Bit rate                    : 256 kb/s
Channel(s)                  : 6 channels
Channel layout              : L R C LFE Ls Rs
Sampling rate               : 48.0 kHz
Frame rate                  : 31.250 FPS (1536 SPF)
Compression mode            : Lossy
Stream size                 : 157 MiB (14%)
Title                       : Braca po materi (1988)
Language                    : Serbian
Service kind                : Complete Main
Default                     : Yes
Forced                      : No
 
epYscVA.png
Hidden Content
You'll be able to see the hidden content once you thank this post.
 
gIFWQUf.png
nFiTGmU.jpg


Thanked by 37 Members:
lustrisimus , patuljakse , garovix , trSTenik , Eizo , banecar50 , LeCroat , rikee , micelj , lilke , Asddsa666 , Ismet1968 , Bontonko , kormi17 , edin.bec , b50andi , Veliki Strumf , barra64 , bilavs1963 , danep , SaleXieri , callipso , aca72 , mari marko , che040 , icaleptir , dammar , Zelenac1 , mspumpe , hectrix , i_023 , ss_semi , Jokso , radionica1 , Biotloneta , beograd1960' , Tomiko37



0 user(s) are reading this topic

0 members, 0 guests, 0 anonymous users