Jump to content

Dobrodošli na Balkandownload.org
Tražite domaće knjige, exyu magazine, sinhronizirane crtane filmove, PC i ostale igre, strane i domaće filmove, dokumentarce, stranu i domaću muziku, itd. ? Ne morate tražiti dalje jer sve ćete to naći kod nas, uredno postavljeno i spremno za download. Osim toga registracijom možete sudjelovati u raznim postojećim temama na forumu, otvarati nove teme, sudjelovati u chatu i još mnogo toga. Ako već imaš otvoren račun, logiraj se ovde ,a ako želiš saznati zašto smo najbolji otvori novi račun i uverite se sami :)
Photo

Bosko Buha (1978)


2 replies to this topic

#1
MaliGrizeBeton

MaliGrizeBeton

    Silver Member

  • Members
  • PipPipPipPipPip
  • 2,524 posts
  • 22572 thanks

Bosko Buha (1978)



Thanked by 16 Members:
Josip49 , radašin , Stefi_1997 , dusan4 , Zagor74 , somsi , Zverinjo , razilev , lokismokilipi2 , kvikigrici , kike1975 , pgromanista , ante12 , popo44 , bax1977 , Ljopatar

#2
Wolf 13

Wolf 13

    Advanced Member

  • Members
  • PipPipPip
  • 426 posts
  • 33359 thanks
Bosko Buha (1978) DVDrip AC3 5.1 x264 by Wolf
(MKV)
 
9unUBdR.jpg
 

Please Login or Register to see this Hidden Content

 

General
Unique ID                   : 150315480038175753935337389145091400186 (0x7115B55A6D249FB9A56B8231821AE1FA)
Complete name               : Bosko Buha (1978) DVDrip AC3 5.1 x264 by Wolf.mkv
Format                      : Matroska
Format version              : Version 4
File size                   : 1.43 GiB
Duration                    : 1 h 56 min
Overall bit rate            : 1 758 kb/s
Encoded date                : UTC 2018-12-22 16:33:19 / UTC 2018-12-22T07:56:37Z
Writing application         : mkvmerge v29.0.0 ('Like It Or Not') 64-bit
Writing library             : libebml v1.3.6 + libmatroska v1.4.9 / Lavf57.7.2
 
Video
ID                          : 1
Format                      : AVC
Format/Info                 : Advanced Video Codec
Format profile              : [email protected]
Format settings             : CABAC / 8 Ref Frames
Format settings, CABAC      : Yes
Format settings, ReFrames   : 8 frames
Codec ID                    : V_MPEG4/ISO/AVC
Duration                    : 1 h 56 min
Bit rate                    : 1 500 kb/s
Width                       : 700 pixels
Height                      : 490 pixels
Display aspect ratio        : 5:3
Original display aspect rat : 1.429
Frame rate mode             : Constant
Frame rate                  : 25.000 FPS
Color space                 : YUV
Chroma subsampling          : 4:2:0
Bit depth                   : 8 bits
Scan type                   : Progressive
Bits/(Pixel*Frame)          : 0.175
Stream size                 : 1.20 GiB (83%)
Title                       : Bosko Buha (1978)
Writing library             : x264 core 155 r2901 7d0ff22
Encoding settings           : cabac=1 / ref=8 / deblock=1:-1:-1 / analyse=0x3:0x133 / me=umh / subme=9 / psy=1 / psy_rd=1.00:0.15 / mixed_ref=1 / me_range=16 / chroma_me=1 / trellis=2 / 8x8dct=1 / cqm=0 / deadzone=21,11 / fast_pskip=1 / chroma_qp_offset=-3 / threads=6 / lookahead_threads=1 / sliced_threads=0 / nr=0 / decimate=1 / interlaced=0 / bluray_compat=0 / constrained_intra=0 / bframes=3 / b_pyramid=2 / b_adapt=2 / b_bias=0 / direct=3 / weightb=1 / open_gop=0 / weightp=2 / keyint=250 / keyint_min=25 / scenecut=40 / intra_refresh=0 / rc_lookahead=60 / rc=2pass / mbtree=1 / bitrate=1500 / ratetol=1.0 / qcomp=0.60 / qpmin=0 / qpmax=69 / qpstep=4 / cplxblur=20.0 / qblur=0.5 / vbv_maxrate=300000 / vbv_bufsize=300000 / nal_hrd=none / filler=0 / ip_ratio=1.40 / aq=1:1.00
Language                    : Serbian
Default                     : Yes
Forced                      : No
Color range                 : Limited
Color primaries             : BT.601 PAL
Transfer characteristics    : BT.709
Matrix coefficients         : BT.601
Statistics Tags Issue       : mkvmerge v29.0.0 ('Like It Or Not') 64-bit 2018-12-22 16:33:19 / mkvmerge v29.0.0 ('Like It Or Not') 64-bit 2018-12-22 16:33:19 / UTC 2018-12-22T07:56:37Z
FromStats_BitRate           : 1499907
FromStats_Duration          : 01:56:43.160000000
FromStats_FrameCount        : 175079
FromStats_StreamSize        : 1313011668
 
Audio
ID                          : 2
Format                      : E-AC-3
Format/Info                 : Enhanced AC-3
Commercial name             : Dolby Digital Plus
Codec ID                    : A_EAC3
Duration                    : 1 h 56 min
Bit rate mode               : Constant
Bit rate                    : 256 kb/s
Channel(s)                  : 6 channels
Channel layout              : L R C LFE Ls Rs
Sampling rate               : 48.0 kHz
Frame rate                  : 31.250 FPS (1536 SPF)
Compression mode            : Lossy
Delay relative to video     : -5 ms
Stream size                 : 214 MiB (15%)
Title                       : Bosko Buha (1978)
Language                    : Serbian
Service kind                : Complete Main
Default                     : Yes
Forced                      : No
Statistics Tags Issue       : mkvmerge v29.0.0 ('Like It Or Not') 64-bit 2018-12-22 16:33:19 / mkvmerge v29.0.0 ('Like It Or Not') 64-bit 2018-12-22 16:33:19 / UTC 2018-12-22T07:56:37Z
FromStats_BitRate           : 256000
FromStats_Duration          : 01:56:43.232000000
FromStats_FrameCount        : 218851
FromStats_StreamSize        : 224103424
 
epYscVA.png
Hidden Content
You'll be able to see the hidden content once you thank this post.
 
mjHMKJd.png
ZLQfCl5.jpg

Edited by Wolf 13, 22 December 2018 - 21:41.


Thanked by 94 Members:

#3
Zoran_

Zoran_

    Gold Member

  • VIP
  • PipPipPipPipPipPip
  • 5,984 posts
  • 149174 thanks
Bosko Buha (1978) 
 
 
BoskoBuha1978.png
 
Su6Ksi6.jpg
 

Please Login or Register to see this Hidden Content

 
Prica o najmladjem heroju revolucije, pioniru i partizanu Bosku Buhi, rodom iz Virovitice. Detinjstvo njegove generacije surovo je prekinuo rat, prisilivsi njega i njegove vrsnjake da prerano sazru. Ipak, u predahu bitaka i iscrpljujucih marseva, zivnula bi opet klica nagona za igrom i nestaslucima, decja radoznalost, titraji prve ljubavi. Boreci se rame uz rame sa odraslima, ta deca su se borila i za ostatke svoga detinjstva.
 
44ro1pc2u.png
 
4UGEoZh.gif
 
dYqBQi5.jpg
 
Oets6ur.gif
 
Bosko Buha (1978) DVDRip.x264.mkv
 
SFYUbuP.jpg
 
Hidden Content
You'll be able to see the hidden content once you thank this post.

Molbe za moje linkove, šaljite na PP.

 

Zabranjeno je kopiranje mojih linkova,reupload i postavljanje na druge forume!


Thanked by 48 Members:
dzabu , mackosopa , Jozo Jozo Fibrozo , vlast69 , Cupavi , hrastvv , kormi17 , nenozg7 , mirjanajovanovic , sola021 , goransokolovic.fr , ddpp75 , nis1971 , Ciba , lilke , darko015 , ivory , djimbee , mladja70 , zoki71 , Edifier , skydivedarko , zvezdas , retype_htc , Psycho.Chernobyl , opetopet , dvojica , ninobeni , burgo , Flegmatico , damirprc , voje , vanja_ , bojanbojan , dzimislav leone , novicanovica , matematic , somci , predrak , MacAir , Zelenac1 , senilni , gbarac , blauer , Jokso , beograd1960' , marijaiztok , papak3333



0 user(s) are reading this topic

0 members, 0 guests, 0 anonymous users