Jump to content

Dobrodošli na Balkandownload.org
Tražite domaće knjige, exyu magazine, sinhronizirane crtane filmove, PC i ostale igre, strane i domaće filmove, dokumentarce, stranu i domaću muziku, itd. ? Ne morate tražiti dalje jer sve ćete to naći kod nas, uredno postavljeno i spremno za download. Osim toga registracijom možete sudjelovati u raznim postojećim temama na forumu, otvarati nove teme, sudjelovati u chatu i još mnogo toga. Ako već imaš otvoren račun, logiraj se ovde ,a ako želiš saznati zašto smo najbolji otvori novi račun i uverite se sami :)
Photo

Sonja i Bik (2012)


4 replies to this topic

#1
Tobacco Road

Tobacco Road

    The Warez GOD

  • Tobacco
  • PipPipPipPipPipPipPipPipPipPip
  • 23,348 posts
  • 995820 thanks
  • Locationscrls

Sonja i Bik (2012)
 

 

Please Login or Register to see this Hidden Content

 
 
Rezija : Vlatka Vorkapic
Uloge: Judita Frankovic, Goran Bogdan, Dejan Acimovic
 
Zemlja: Hrvatska
Godina: 2012
 
 
Debitantski film redateljice Vlatke Vorkapić Sonja i bik, na 59.Festivalu igranog filma u Puli osvojio je nagrade za najbolji scenarij, kostimografiju i glazbu. Naime, film redateljice Vorkapić bavi se onim čemu se (izgleda) stanovnici ove zemlje najviše vole smijati, a to je odnos sela i grada.
Komedija je to o neočekivanoj romansi između Zagrepčanke Sonje (Judita Franković), vegetarijanke i zagrižene aktivistice i sina organizatora seoskih bikijada Ante (Goran Bogdan), pametnog vlaja i spretnog manipulatora u prodaji osiguranja.
Oko centralnog para koji u svojoj romantičnokomičnoj igri ide malo naprijed-malo natrag, odvija se niz radnji u stilu urnebesne nepripitomljene satire na račun domaćih “žutih“ medija i važnih hrvatskih institucija poput Sabora.
 
 
Screen


Download 

 

 

Please Login or Register to see this Hidden Content


 

 

Kako skinuti nesto sa Balkandownload-a?

www.slideshare.net/bd4yu/kako-skidati-fajlove-sa-balkan-download-a

Kako da pronadjete zeljeni sadrzaj na forumu? 

www.balkandownload.org/topic/40428-kako-pronaci-zeljeni-sadrzaj-na-forumu/

Najmračniji krugovi pakla su rezervisani za one koji u vremenima moralne krize ostanu neutralni i suzdržani -Dante Alighieri


Thanked by 56 Members:
nele22 , zoxkg , prskalo007 , LeCroat , blatnjavi , biguljica , bbbbbbb , leerooj , AlexDot86 , danijelamije , mr daddy , katevojtković , devilson , grejstok , damirs , Ban77 , mpaliska , Bakicica , attachee , mterzic1 , hob , Pajo11111 , Mari0 , e.zlotrg , toni23 , Djurca , buzadzicn , pelinho , MManjaka , yukyuk88 , nanoimimi , pulser , pericgordana018 , CedoZ , zekaw , debo , mirjanaaca , senilni , bokan , neca019 , TonaCro , malenaxy , Zelenac1 , martiparty , ljube25 , cobu2 , Marek Hahn , bomba.goran , draganbauk , tiborlingli , mrmotija , zikazika , posejdon-88 , TinyToon25 , dragon10 , xyz013

#2
magz

magz

    Silver Member

  • Members
  • PipPipPipPipPip
  • 3,057 posts
  • 282989 thanks

Sonja i Bik (2012) 720p

Rip sa HRT HD

Hidden Content
You'll be able to see the hidden content once you thank this post.



Thanked by 86 Members:

#3
Wolf 13

Wolf 13

    Advanced Member

  • Members
  • PipPipPip
  • 426 posts
  • 33607 thanks
Sonja i bik (2012) DVDrip DD5.1 x264 by Wolf
(MKV) HQ
 
I0ngfT8.jpg
 

Please Login or Register to see this Hidden Content

 

 

General
Unique ID                   : 277002790070882203965101001260611948964 (0xD064CBFB95C212E3591171DBAB7851A4)
Complete name               : Sonja i bik (2012) DVDrip E-AC3 x264 by Wolf.mkv
Format                      : Matroska
Format version              : Version 4 / Version 2
File size                   : 1.24 GiB
Duration                    : 1 h 41 min
Overall bit rate            : 1 741 kb/s
Encoded date                : UTC 2018-11-29 11:59:30 / UTC 2018-11-29T09:12:57Z
Writing application         : mkvmerge v28.2.0 ('The Awakening') 64-bit
Writing library             : libebml v1.3.6 + libmatroska v1.4.9 / Lavf57.7.2
 
Video
ID                          : 1
Format                      : AVC
Format/Info                 : Advanced Video Codec
Format profile              : [email protected]
Format settings             : CABAC / 8 Ref Frames
Format settings, CABAC      : Yes
Format settings, ReFrames   : 8 frames
Codec ID                    : V_MPEG4/ISO/AVC
Duration                    : 1 h 41 min
Bit rate                    : 1 500 kb/s
Width                       : 718 pixels
Height                      : 576 pixels
Display aspect ratio        : 16:9
Frame rate mode             : Constant
Frame rate                  : 25.000 FPS
Color space                 : YUV
Chroma subsampling          : 4:2:0
Bit depth                   : 8 bits
Scan type                   : Progressive
Bits/(Pixel*Frame)          : 0.145
Stream size                 : 1.03 GiB (83%)
Title                       : Sonja i bik (2012)
Writing library             : x264 core 155 r2901 7d0ff22
Encoding settings           : cabac=1 / ref=8 / deblock=1:-1:-1 / analyse=0x3:0x133 / me=umh / subme=9 / psy=1 / psy_rd=1.00:0.15 / mixed_ref=1 / me_range=16 / chroma_me=1 / trellis=2 / 8x8dct=1 / cqm=0 / deadzone=21,11 / fast_pskip=1 / chroma_qp_offset=-3 / threads=6 / lookahead_threads=1 / sliced_threads=0 / nr=0 / decimate=1 / interlaced=0 / bluray_compat=0 / constrained_intra=0 / bframes=3 / b_pyramid=2 / b_adapt=2 / b_bias=0 / direct=3 / weightb=1 / open_gop=0 / weightp=2 / keyint=250 / keyint_min=25 / scenecut=40 / intra_refresh=0 / rc_lookahead=60 / rc=2pass / mbtree=1 / bitrate=1500 / ratetol=1.0 / qcomp=0.60 / qpmin=0 / qpmax=69 / qpstep=4 / cplxblur=20.0 / qblur=0.5 / vbv_maxrate=62500 / vbv_bufsize=78125 / nal_hrd=none / filler=0 / ip_ratio=1.40 / aq=1:1.00
Language                    : Croatian
Default                     : Yes
Forced                      : No
Color range                 : Limited
Color primaries             : BT.601 PAL
Transfer characteristics    : BT.709
Matrix coefficients         : BT.601
Statistics Tags Issue       : mkvmerge v28.2.0 ('The Awakening') 64-bit 2018-11-29 11:59:30 / mkvmerge v28.2.0 ('The Awakening') 64-bit 2018-11-29 11:59:30 / UTC 2018-11-29T09:12:57Z
FromStats_BitRate           : 1499757
FromStats_Duration          : 01:40:41.000000000
FromStats_FrameCount        : 151022
FromStats_StreamSize        : 1132504221
 
Audio
ID                          : 2
Format                      : E-AC-3
Format/Info                 : Enhanced Audio Coding 3
Codec ID                    : A_EAC3
Duration                    : 1 h 41 min
Bit rate mode               : Constant
Bit rate                    : 256 kb/s
Channel(s)                  : 6 channels
Channel positions           : Front: L C R, Side: L R, LFE
Sampling rate               : 48.0 kHz
Frame rate                  : 187.500 FPS (256 SPF)
Compression mode            : Lossy
Delay relative to video     : -5 ms
Stream size                 : 186 MiB (15%)
Title                       : Sonja i bik (2012)
Language                    : Croatian
Service kind                : Complete Main
Default                     : Yes
Forced                      : No
Statistics Tags Issue       : mkvmerge v28.2.0 ('The Awakening') 64-bit 2018-11-29 11:59:30 / mkvmerge v28.2.0 ('The Awakening') 64-bit 2018-11-29 11:59:30 / UTC 2018-11-29T09:12:57Z
FromStats_BitRate           : 256000
FromStats_Duration          : 01:41:48.288000000
FromStats_FrameCount        : 190884
FromStats_StreamSize        : 195465216
 
epYscVA.png
Hidden Content
You'll be able to see the hidden content once you thank this post.
 
BfQK7E9.png
IiuV707.jpg

Edited by Wolf 13, 13 September 2019 - 14:12.


Thanked by 102 Members:

#4
Zoran_

Zoran_

    Gold Member

  • VIP
  • PipPipPipPipPipPip
  • 5,990 posts
  • 149767 thanks
Sonja i bik (2012)
 
 
Sonjaibik2012.png
 
Su6Ksi6.jpg
 

Please Login or Register to see this Hidden Content

 
Oko centralnog para koji u svojoj romanticnokomicnoj igri ide malo naprijed-malo natrag, odvija se niz radnji u stilu urnebesne nepripitomljene satire na racun domacih "žutih" medija i važnih hrvatskih institucija poput Sabora. Napokon hrvatska komedija koja ima muda prikazati nas onakvima kakvi zaista i jesmo.
 
5j0kjmyuuc.png
 
Sonjaibik2012.avi.gif
 
Sonjaibik2012.avi.jpg
 
Oets6ur.gif
 
Sonja i bik (2012) DVDRip avi
 
SFYUbuP.jpg
 
Hidden Content
You'll be able to see the hidden content once you thank this post.

Molbe za moje linkove, šaljite na PP.

 

Zabranjeno je kopiranje mojih linkova,reupload i postavljanje na druge forume!


Thanked by 39 Members:
nele22 , goransokolovic.fr , pepe333 , TheChoosenOne18 , myeerah , bubimir13 , Verdeja , leerooj , Dadohh , bbbbbbb , djoe2 , myself13 , micelj , Auntiffr , KrikNaglas , loon123 , dreidolin , zlatko peric , millevoy , mr daddy , sanakabo , kanki , simicica , rasaz , tsubic , panticz , JakPetIva , daniveka , foxmolder , Homss , Jokso , damirs , beograd1960' , Registriran , iceman_79 , patrikstrasni , Miki_Kiki_Riki , zoran48 , Milfir

#5
Zoran_

Zoran_

    Gold Member

  • VIP
  • PipPipPipPipPipPip
  • 5,990 posts
  • 149767 thanks
Sonja i bik (2012)
 
 
 
pRq2.jpg
 
Oets6ur.gif
 
Sonja i bik (2012) 720p.x264.mkv
 
SFYUbuP.jpg
 
Hidden Content
You'll be able to see the hidden content once you thank this post.

Molbe za moje linkove, šaljite na PP.

 

Zabranjeno je kopiranje mojih linkova,reupload i postavljanje na druge forume!


Thanked by 37 Members:
karlo cakanic , odisej65 , TheChoosenOne18 , Ostap , olat_dragneel , pinosavac2 , neprilagođen , LeCroat , debos , balkangy , MyRose , b50andi , blatnjavi , leerooj , Djurika , kockari , 01Dejan , myself13 , Anki , dijetemi , zoran48 , micelj , Sanjin13 , Zelenac1 , Delamaris , fritz200300 , Jokso , prosphero , mean machine , Franci , beograd1960' , epikur69 , nesom , radonja86 , settim , opetopet , vlalos1967



0 user(s) are reading this topic

0 members, 0 guests, 0 anonymous users