Jump to content

Dobrodošli na Balkandownload.org
Tražite domaće knjige, exyu magazine, sinhronizirane crtane filmove, PC i ostale igre, strane i domaće filmove, dokumentarce, stranu i domaću muziku, itd. ? Ne morate tražiti dalje jer sve ćete to naći kod nas, uredno postavljeno i spremno za download. Osim toga registracijom možete sudjelovati u raznim postojećim temama na forumu, otvarati nove teme, sudjelovati u chatu i još mnogo toga. Ako već imaš otvoren račun, logiraj se ovde ,a ako želiš saznati zašto smo najbolji otvori novi račun i uverite se sami :)
Photo

The Following (2013-...)


  • Please log in to reply
48 replies to this topic

#1
Tobacco Road

Tobacco Road

    The Warez GOD

  • Tobacco
  • PipPipPipPipPipPipPipPipPipPip
  • 17,628 posts
  • 121996 thanks
  • Locationscrls

The Following (2013-...)

 

thefollowing.jpg

 

 

Najnovija serija u produkciji mreze FOX. 

 

Radnja: U svakom trenutku, Amerika ima oko 300 serijskih ubica. Sta kada bi postojala mogucnost da svi ti zlikovci naprave neku vrstu saradnje i organizacije. Upravo je to palo na um briljantnom manijaku, koji ce pokusati da napravi neku vrstu unije serijskih ubica, radi lakseg "delovanja".

 

 

Sezona 1 Epizoda 1 - HDTV XviD AFG

 

Screen

 

50fe95b14f46e.jpg

 

 

 

Download - Klikni na link

Please Login or Register to see this Hidden Content

 

 


Kako skinuti nesto sa Balkandownload-a?

 

 

http://www.slideshare.net/bd4yu/kako-skidati-fajlove-sa-balkan-download-a

 

 

Kako da pronadjete zeljeni sadrzaj na forumu? 

 

 

http://www.balkandownload.org/topic/40428-kako-pronaci-zeljeni-sadrzaj-na-forumu/

 

Najmračniji krugovi pakla su rezervisani za one koji u vremenima moralne krize ostanu neutralni i suzdržani -Dante Alighieri


#2
tarantula

tarantula

    Advanced Member

  • Members
  • PipPipPip
  • 789 posts
  • 889 thanks
  • LocationSverige
The Following S01
dcpn9xjv.jpg

Please Login or Register to see this Hidden Content

Po procenama FBI, u SAD se trenutno nalazi oko 300 aktivnih serijskih ubica. Šta bi se desilo ako oni nađu način da međusobno komuniciraju? Šta ako počnu da rade zajedno širom zemlje? Dobrodošli u novu seriju televizije FOX, The Following. Novi uzbudljivi triler u kome će glavne uloge tumačiti Kevin Bacon, James Purefoy, Natalie Zea i još mnogi drugi.

prijevod

Please Login or Register to see this Hidden Content

The.Following.S01E01.HDTV.XviD-AFG

Please Login or Register to see this Hidden Content


Bravar je bio bolji


#3
tarantula

tarantula

    Advanced Member

  • Members
  • PipPipPip
  • 789 posts
  • 889 thanks
  • LocationSverige
The.Following.S01E02.HDTV.XviD-AFG

Please Login or Register to see this Hidden Content


Bravar je bio bolji


#4
tarantula

tarantula

    Advanced Member

  • Members
  • PipPipPip
  • 789 posts
  • 889 thanks
  • LocationSverige
The.Following.S01E03.HDTV.XviD-AFG

Please Login or Register to see this Hidden Content


Bravar je bio bolji


#5
Uploader

Uploader

    Gold Member

  • Members
  • PipPipPipPipPipPip
  • 5,420 posts
  • 10120 thanks
stars.gif
[MULTI][ 6 HOSTS ][SINGLE LINK - SINGLE EXTRACT ][UP|PL|ME|BU|180|UC]The.Following.S01E01.HDTV.XviD-AFG
stars.gif
PREVOD SE NALAZI U RAR ARHIVI .
poster.jpg

When notorious serial killer Joe Carroll escape from death row and embarks on a new killing spree, the FBI calls former agent Ryan Hardy to consult on

the case. Having since withdraw from the public eye, Hardy was responsible for Carroll's capture nine years ago. Hardy knows him better than anyone ; he

is perhaps Carroll's only psychological and intellectual match. But the Ryan Hardy who broke the Carroll case years ago isn't the same man today.

Wounded both physically and mentally by his previous pursuit of this serial killer, Hardy isn't calling the shots on this case. He works closely with an

FBI team, wich considers Hardy to be more of a liability than an asset.

Please Login or Register to see this Hidden Content

Po procenama FBI, u SAD se trenutno nalazi oko 300 aktivnih serijskih ubica. Šta bi se desilo ako oni nađu način da međusobno komuniciraju? Šta ako

počnu da rade zajedno širom zemlje? Dobro došli u novu seriju televizije FOX, The Following. Novi uzbudljivi triler u kome će glavne uloge tumačiti

Kevin Bacon, James Purefoy, Natalie Zea i još mnogi drugi.

General
File name : The.Following.S01E01.HDTV.XviD-AFG.avi
Format : AVI
Format/Info : Audio Video Interleave
File size : 364 MiB
Duration : 44mn 43s
Overall bit rate mode : Variable
Overall bit rate : 1 136 Kbps

Video
ID : 0
Format : MPEG-4 Visual
Format profile : Advanced [email protected]
Format settings, BVOP : 2
Format settings, QPel : No
Format settings, GMC : No warppoints
Format settings, Matrix : Default (H.263)
Codec ID : XVID
Codec ID/Hint : XviD
Duration : 44mn 43s
Bit rate : 996 Kbps
Width : 640 pixels
Height : 360 pixels
Display aspect ratio : 16:9
Frame rate : 23.976 fps
Color space : YUV
Chroma subsampling : 4:2:0
Bit depth : 8 bits
Scan type : Progressive
Compression mode : Lossy
Bits/(Pixel*Frame) : 0.180
Stream size : 319 MiB (88%)
Writing library : XviD 64

Audio
ID : 1
Format : MPEG Audio
Format version : Version 1
Format profile : Layer 3
Mode : Joint stereo
Mode extension : MS Stereo
Codec ID : 55
Codec ID/Hint : MP3
Duration : 44mn 43s
Bit rate mode : Variable
Bit rate : 128 Kbps
Channel(s) : 2 channels
Sampling rate : 48.0 KHz
Compression mode : Lossy
Stream size : 40.9 MiB (11%)
Alignment : Aligned on interleaves
Interleave, duration : 24 ms (0.58 video frame)
Interleave, preload duration : 178 ms
Title : The.Following.S01E01.HDTV.XviD-AFG_360p.audio
Writing library : LAME3.98.4

SCREENSHOTS :
34ik076.jpg
DOWNLOAD :
10 % Recovery Record Added

Please Login or Register to see this Hidden Content

Password :

Please Login or Register to see this Hidden Content

PREVOD SE NALAZI U RAR ARHIVI .

#6
Uploader

Uploader

    Gold Member

  • Members
  • PipPipPipPipPipPip
  • 5,420 posts
  • 10120 thanks
stars.gif
[MULTI][ 6 HOSTS ][SINGLE LINK - SINGLE EXTRACT ][UP|PL|ME|BU|180|UC]The.Following.S01E02.HDTV.XviD-AFG
stars.gif
PREVOD SE NALAZI U RAR ARHIVI .
poster.jpg

When notorious serial killer Joe Carroll escape from death row and embarks on a new killing spree, the FBI calls former agent Ryan Hardy to consult on

the case. Having since withdraw from the public eye, Hardy was responsible for Carroll's capture nine years ago. Hardy knows him better than anyone ; he

is perhaps Carroll's only psychological and intellectual match. But the Ryan Hardy who broke the Carroll case years ago isn't the same man today.

Wounded both physically and mentally by his previous pursuit of this serial killer, Hardy isn't calling the shots on this case. He works closely with an

FBI team, wich considers Hardy to be more of a liability than an asset.

Please Login or Register to see this Hidden Content

Po procenama FBI, u SAD se trenutno nalazi oko 300 aktivnih serijskih ubica. Šta bi se desilo ako oni nađu način da međusobno komuniciraju? Šta ako

počnu da rade zajedno širom zemlje? Dobro došli u novu seriju televizije FOX, The Following. Novi uzbudljivi triler u kome će glavne uloge tumačiti

Kevin Bacon, James Purefoy, Natalie Zea i još mnogi drugi.

General
Complete name : The.Following.S01E02.HDTV.XviD-AFG.avi
Format : AVI
Format/Info : Audio Video Interleave
File size : 347 MiB
Duration : 43mn 11s
Overall bit rate mode : Variable
Overall bit rate : 1 124 Kbps

Video
ID : 0
Format : MPEG-4 Visual
Format profile : Advanced [email protected]
Format settings, BVOP : 2
Format settings, QPel : No
Format settings, GMC : No warppoints
Format settings, Matrix : Default (H.263)
Codec ID : XVID
Codec ID/Hint : XviD
Duration : 43mn 11s
Bit rate : 984 Kbps
Width : 640 pixels
Height : 360 pixels
Display aspect ratio : 16:9
Frame rate : 23.976 fps
Color space : YUV
Chroma subsampling : 4:2:0
Bit depth : 8 bits
Scan type : Progressive
Compression mode : Lossy
Bits/(Pixel*Frame) : 0.178
Stream size : 304 MiB (87%)
Writing library : XviD 64

Audio
ID : 1
Format : MPEG Audio
Format version : Version 1
Format profile : Layer 3
Mode : Joint stereo
Mode extension : MS Stereo
Codec ID : 55
Codec ID/Hint : MP3
Duration : 43mn 11s
Bit rate mode : Variable
Bit rate : 128 Kbps
Channel(s) : 2 channels
Sampling rate : 48.0 KHz
Compression mode : Lossy
Stream size : 39.5 MiB (11%)
Alignment : Aligned on interleaves
Interleave, duration : 24 ms (0.58 video frame)
Interleave, preload duration : 178 ms
Title : The.Following.S01E02.HDTV.XviD-AFG_360p.audio
Writing library : LAME3.98.4

SCREENSHOTS :
124kcbl.jpg
DOWNLOAD :
10 % Recovery Record Added

Please Login or Register to see this Hidden Content

Password :

Please Login or Register to see this Hidden Content

PREVOD SE NALAZI U RAR ARHIVI .

#7
Uploader

Uploader

    Gold Member

  • Members
  • PipPipPipPipPipPip
  • 5,420 posts
  • 10120 thanks
stars.gif
[MULTI][ 6 HOSTS ][SINGLE LINK - SINGLE EXTRACT ][UP|PL|ME|BU|180|UC]The.Following.S01E03.HDTV.XviD-AFG
stars.gif
PREVOD SE NALAZI U RAR ARHIVI .
poster.jpg

When notorious serial killer Joe Carroll escape from death row and embarks on a new killing spree, the FBI calls former agent Ryan Hardy to consult on the case. Having since withdraw from the public eye, Hardy was responsible for Carroll's capture nine years ago. Hardy knows him better than anyone ; he is perhaps Carroll's only psychological and intellectual match. But the Ryan Hardy who broke the Carroll case years ago isn't the same man today. Wounded both physically and mentally by his previous pursuit of this serial killer, Hardy isn't calling the shots on this case. He works closely with an FBI team, wich considers Hardy to be more of a liability than an asset.

Please Login or Register to see this Hidden Content

Po procenama FBI, u SAD se trenutno nalazi oko 300 aktivnih serijskih ubica. Šta bi se desilo ako oni nađu način da međusobno komuniciraju? Šta ako počnu da rade zajedno širom zemlje? Dobro došli u novu seriju televizije FOX, The Following. Novi uzbudljivi triler u kome će glavne uloge tumačiti Kevin Bacon, James Purefoy, Natalie Zea i još mnogi drugi.

General
Complete name : The.Following.S01E03.HDTV.XviD-AFG.avi
Format : AVI
Format/Info : Audio Video Interleave
File size : 347 MiB
Duration : 43mn 9s
Overall bit rate mode : Variable
Overall bit rate : 1 124 Kbps

Video
ID : 0
Format : MPEG-4 Visual
Format profile : Advanced [email protected]
Format settings, BVOP : 2
Format settings, QPel : No
Format settings, GMC : No warppoints
Format settings, Matrix : Default (H.263)
Codec ID : XVID
Codec ID/Hint : XviD
Duration : 43mn 9s
Bit rate : 984 Kbps
Width : 640 pixels
Height : 360 pixels
Display aspect ratio : 16:9
Frame rate : 23.976 fps
Color space : YUV
Chroma subsampling : 4:2:0
Bit depth : 8 bits
Scan type : Progressive
Compression mode : Lossy
Bits/(Pixel*Frame) : 0.178
Stream size : 304 MiB (87%)
Writing library : XviD 64

Audio
ID : 1
Format : MPEG Audio
Format version : Version 1
Format profile : Layer 3
Mode : Joint stereo
Mode extension : MS Stereo
Codec ID : 55
Codec ID/Hint : MP3
Duration : 43mn 9s
Bit rate mode : Variable
Bit rate : 128 Kbps
Channel(s) : 2 channels
Sampling rate : 48.0 KHz
Compression mode : Lossy
Stream size : 39.5 MiB (11%)
Alignment : Aligned on interleaves
Interleave, duration : 24 ms (0.58 video frame)
Interleave, preload duration : 178 ms
Title : The.Following.S01E03.HDTV.XviD-AFG_360p.audio
Writing library : LAME3.98.4

SCREENSHOTS :
21jx0ma.jpg
DOWNLOAD :
10 % Recovery Record Added

Please Login or Register to see this Hidden Content

Password :

Please Login or Register to see this Hidden Content

PREVOD SE NALAZI U RAR ARHIVI .

#8
tarantula

tarantula

    Advanced Member

  • Members
  • PipPipPip
  • 789 posts
  • 889 thanks
  • LocationSverige
The.Following.S01E04.HDTV.XviD-AFG

Please Login or Register to see this Hidden Content


Bravar je bio bolji


#9
tarantula

tarantula

    Advanced Member

  • Members
  • PipPipPip
  • 789 posts
  • 889 thanks
  • LocationSverige

The.Following.S01E05.HDTVXviD-AFG

Please Login or Register to see this Hidden Content


Bravar je bio bolji


#10
tarantula

tarantula

    Advanced Member

  • Members
  • PipPipPip
  • 789 posts
  • 889 thanks
  • LocationSverige

The.Following.S01E06.HDTV.XviD-AFG

Please Login or Register to see this Hidden Content


Bravar je bio bolji


#11
zenica

zenica

    Bronze Member

  • Banovan
  • PipPipPipPip
  • 1,277 posts
  • 111 thanks

The Following S01 E06 The Fall HDTV XviD

kijmnhzu.jpg

The Following S01 E06 The Fall HDTV XviD
 

Please Login or Register to see this Hidden Content


Edited by zenica, 26 February 2013 - 23:16.

Twitter - @zenicaone
FB - Telly Showz

#12
tarantula

tarantula

    Advanced Member

  • Members
  • PipPipPip
  • 789 posts
  • 889 thanks
  • LocationSverige

The.Following.S01E07.HDTV.XviD-AFG

Please Login or Register to see this Hidden Content


Bravar je bio bolji


#13
zenica

zenica

    Bronze Member

  • Banovan
  • PipPipPipPip
  • 1,277 posts
  • 111 thanks

The Following S01 E07 Let Me Go HDTV XviD

kijmnhzu.jpg

The Following S01 E07 Let Me Go HDTV XviD
 

Please Login or Register to see this Hidden Content


 


Edited by zenica, 05 March 2013 - 18:37.

Twitter - @zenicaone
FB - Telly Showz

#14
tarantula

tarantula

    Advanced Member

  • Members
  • PipPipPip
  • 789 posts
  • 889 thanks
  • LocationSverige

The.Following.S01E08.HDTV.XviD-AFG

Please Login or Register to see this Hidden Content


Bravar je bio bolji


#15
zenica

zenica

    Bronze Member

  • Banovan
  • PipPipPipPip
  • 1,277 posts
  • 111 thanks

The Following S01 E08 Welcome Home HDTV XviD

kijmnhzu.jpg

The Following S01 E08 Welcome Home HDTV XviD
 

Please Login or Register to see this Hidden Content


 


Edited by zenica, 12 March 2013 - 23:07.

Twitter - @zenicaone
FB - Telly Showz

#16
tarantula

tarantula

    Advanced Member

  • Members
  • PipPipPip
  • 789 posts
  • 889 thanks
  • LocationSverige

The.Following.S01E09.HDTV.XviD-TVSR

Please Login or Register to see this Hidden Content


Bravar je bio bolji


#17
tarantula

tarantula

    Advanced Member

  • Members
  • PipPipPip
  • 789 posts
  • 889 thanks
  • LocationSverige

The.Following.S01E10.HDTV.XviD-AFG

Please Login or Register to see this Hidden Content


Bravar je bio bolji


#18
zenica

zenica

    Bronze Member

  • Banovan
  • PipPipPipPip
  • 1,277 posts
  • 111 thanks

The Following S01 E10 Guilt HDTV XviD

kijmnhzu.jpg

The Following S01 E10 Guilt HDTV XviD
 

Please Login or Register to see this Hidden Content


Edited by zenica, 26 March 2013 - 22:31.

Twitter - @zenicaone
FB - Telly Showz

#19
tarantula

tarantula

    Advanced Member

  • Members
  • PipPipPip
  • 789 posts
  • 889 thanks
  • LocationSverige

The.Following.S01E11.HDTV.XviD-AFG

Please Login or Register to see this Hidden Content


Bravar je bio bolji


#20
tarantula

tarantula

    Advanced Member

  • Members
  • PipPipPip
  • 789 posts
  • 889 thanks
  • LocationSverige

The.Following.S01E12.HDTV.XviD-AFG

 

Please Login or Register to see this Hidden Content

 


Bravar je bio bolji





0 user(s) are reading this topic

0 members, 0 guests, 0 anonymous users