Jump to content

Dobrodošli na Balkandownload.org
Tražite domaće knjige, exyu magazine, sinhronizirane crtane filmove, PC i ostale igre, strane i domaće filmove, dokumentarce, stranu i domaću muziku, itd. ? Ne morate tražiti dalje jer sve ćete to naći kod nas, uredno postavljeno i spremno za download. Osim toga registracijom možete sudjelovati u raznim postojećim temama na forumu, otvarati nove teme, sudjelovati u chatu i još mnogo toga. Ako već imaš otvoren račun, logiraj se ovde ,a ako želiš saznati zašto smo najbolji otvori novi račun i uverite se sami :)
Photo

Druzba Pere Kvrzice (1970)


2 replies to this topic

#1
MaliGrizeBeton

MaliGrizeBeton

    Silver Member

  • Members
  • PipPipPipPipPip
  • 2,524 posts
  • 22642 thanks

Družba Pere Kvržice (1970)



Thanked by 97 Members:

#2
Wolf 13

Wolf 13

    Advanced Member

  • Members
  • PipPipPip
  • 426 posts
  • 33666 thanks
Druzba Pere Kvrzice (1970) DVDrip E-AC3 x264 by Wolf
(MKV)
 
z7udaYG.jpg
 

Please Login or Register to see this Hidden Content

 

General
Unique ID                   : 237277425701374126829965714933169536056 (0xB281F84D3C9C299A13C15B3CD9703C38)
Complete name               : Druzba Pere Kvrzice (1970) DVDrip E-AC3 x264 by Wolf.mkv
Format                      : Matroska
Format version              : Version 4 / Version 2
File size                   : 1 021 MiB
Duration                    : 1 h 21 min
Overall bit rate            : 1 756 kb/s
Encoded date                : UTC 2018-10-23 21:34:33 / UTC 2018-10-23T13:20:39Z
Writing application         : mkvmerge v28.0.0 ('Voice In My Head') 64-bit
Writing library             : libebml v1.3.6 + libmatroska v1.4.9 / Lavf57.7.2
 
Video
ID                          : 1
Format                      : AVC
Format/Info                 : Advanced Video Codec
Format profile              : High [email protected]
Format settings             : CABAC / 8 Ref Frames
Format settings, CABAC      : Yes
Format settings, ReFrames   : 8 frames
Codec ID                    : V_MPEG4/ISO/AVC
Duration                    : 1 h 21 min
Bit rate                    : 1 500 kb/s
Width                       : 698 pixels
Height                      : 502 pixels
Display aspect ratio        : 16:9
Original display aspect rat : 3:2
Frame rate mode             : Constant
Frame rate                  : 25.000 FPS
Color space                 : YUV
Chroma subsampling          : 4:2:0
Bit depth                   : 10 bits
Scan type                   : Progressive
Bits/(Pixel*Frame)          : 0.171
Stream size                 : 852 MiB (83%)
Title                       : Druzba Pere Kvrzice (1970)
Writing library             : x264 core 155 r2901 7d0ff22
Encoding settings           : cabac=1 / ref=8 / deblock=1:-1:-1 / analyse=0x3:0x133 / me=umh / subme=9 / psy=1 / psy_rd=1.00:0.15 / mixed_ref=1 / me_range=16 / chroma_me=1 / trellis=2 / 8x8dct=1 / cqm=0 / deadzone=21,11 / fast_pskip=1 / chroma_qp_offset=-3 / threads=6 / lookahead_threads=1 / sliced_threads=0 / nr=0 / decimate=1 / interlaced=0 / bluray_compat=0 / constrained_intra=0 / bframes=3 / b_pyramid=2 / b_adapt=2 / b_bias=0 / direct=3 / weightb=1 / open_gop=0 / weightp=2 / keyint=250 / keyint_min=25 / scenecut=40 / intra_refresh=0 / rc_lookahead=60 / rc=2pass / mbtree=1 / bitrate=1500 / ratetol=1.0 / qcomp=0.60 / qpmin=0 / qpmax=81 / qpstep=4 / cplxblur=20.0 / qblur=0.5 / vbv_maxrate=150000 / vbv_bufsize=187500 / nal_hrd=none / filler=0 / ip_ratio=1.40 / aq=1:1.00
Language                    : Croatian
Default                     : Yes
Forced                      : No
Color range                 : Limited
Color primaries             : BT.601 PAL
Transfer characteristics    : BT.709
Matrix coefficients         : BT.601
Statistics Tags Issue       : mkvmerge v28.0.0 ('Voice In My Head') 64-bit 2018-10-23 21:34:33 / mkvmerge v28.0.0 ('Voice In My Head') 64-bit 2018-10-23 21:34:33 / UTC 2018-10-23T13:20:39Z
FromStats_BitRate           : 1499801
FromStats_Duration          : 01:21:12.000000000
FromStats_FrameCount        : 121800
FromStats_StreamSize        : 913379031
 
Audio
ID                          : 2
Format                      : E-AC-3
Format/Info                 : Enhanced Audio Coding 3
Codec ID                    : A_EAC3
Duration                    : 1 h 21 min
Bit rate mode               : Constant
Bit rate                    : 256 kb/s
Channel(s)                  : 6 channels
Channel positions           : Front: L C R, Side: L R, LFE
Sampling rate               : 48.0 kHz
Frame rate                  : 187.500 FPS (256 SPF)
Compression mode            : Lossy
Delay relative to video     : -5 ms
Stream size                 : 149 MiB (15%)
Title                       : Druzba Pere Kvrzice (1970)
Language                    : Croatian
Service kind                : Complete Main
Default                     : Yes
Forced                      : No
Statistics Tags Issue       : mkvmerge v28.0.0 ('Voice In My Head') 64-bit 2018-10-23 21:34:33 / mkvmerge v28.0.0 ('Voice In My Head') 64-bit 2018-10-23 21:34:33 / UTC 2018-10-23T13:20:39Z
FromStats_BitRate           : 256000
FromStats_Duration          : 01:21:18.176000000
FromStats_FrameCount        : 152443
FromStats_StreamSize        : 156101632
 
k2aTdzy.png
Hidden Content
You'll be able to see the hidden content once you thank this post.
 
kyhFM3o.png
kLggwu6.jpg


Thanked by 106 Members:

#3
Zoran_

Zoran_

    Gold Member

  • VIP
  • PipPipPipPipPipPip
  • 6,005 posts
  • 150072 thanks
Družba Pere Kvržice (1970)
 
 
OuOAiSu.png
 
Su6Ksi6.jpg
 

Please Login or Register to see this Hidden Content

 
Već godinama seoska vodenica nije u pogonu, a središnji je problem mnogih seljaka. Oni za svoje potrebe moraju koristiti parni mlin što je u interesu vlasnika mlina. Seoski dječaci, na čelu s Perom, osnivaju Družbu i zadatak im je svoje slobodno vrijeme provesti obnavljajuci vodenicu. Na tom putu očekuje ih niz pustolovina, pa čak i opasnost. Ali posao ce im se isplatiti! Pero, Medo, Zilo i Milo Dijete četvorica su članova Družbe, ali i vrijedni dječaci. Ne boje se nikakvog fizičkog posla, a i znaju čuvati mnoge tajne. Njihova tajnovitost i pustolovni duh ovaj film ce pretvoriti u niz uzbudljivih akcija.
 
cqpan6n3uss.png
 
giwt20T.gif
 
uKBDxL3.jpg
 
Oets6ur.gif
 
Druzba Pere Kvrzice (1970) DVDRip.x264.mkv
 
SFYUbuP.jpg
 
Hidden Content
You'll be able to see the hidden content once you thank this post.

Molbe za moje linkove, šaljite na PP.

 

Zabranjeno je kopiranje mojih linkova,reupload i postavljanje na druge forume!


Thanked by 73 Members:
logic , robertinjo , MySelf.2001 , ki27ka , r6_lion , mika_vk , Koncar , 16pilica , Tomiko37 , bratkooo , dadazg , Yerara , bax1977 , Cruzcastillo , maridu , 10042013 , Petard32 , mfic04 , art321 , deich_vt , exile , Milan18 , bertopass , Torba , osinium , bedazzledddd , Neos , Gale92 , TIHOMIRYYY , Lothlorien , Josip49 , srkee01 , neo101m , danGa , Ikapec , djuradj86 , mr daddy , hdevic , tadija03 , mugi1974 , kockari , mlda , bozovaricak , goraneo , zecozeco , zorankrneta74 , jod8871 , gigahr , božidar , morse , borislav022 , ultimate08 , Zelenac1 , Argos0308 , dvojica , iceman_79 , Anki , dodge , toco222 , micelj , GORANJ79 , epikur69 , opetopet , mizimojzi , blauer , beograd1960' , matematic , Jokso , Manipe , gbarac , bubimiri , fantom018 , saltram



0 user(s) are reading this topic

0 members, 0 guests, 0 anonymous users