Jump to content

Dobrodošli na Balkandownload.org
Tražite domaće knjige, exyu magazine, sinhronizirane crtane filmove, PC i ostale igre, strane i domaće filmove, dokumentarce, stranu i domaću muziku, itd. ? Ne morate tražiti dalje jer sve ćete to naći kod nas, uredno postavljeno i spremno za download. Osim toga registracijom možete sudjelovati u raznim postojećim temama na forumu, otvarati nove teme, sudjelovati u chatu i još mnogo toga. Ako već imaš otvoren račun, logiraj se ovde ,a ako želiš saznati zašto smo najbolji otvori novi račun i uverite se sami :)
Photo

Profesionalac (2003)


2 replies to this topic

#1
mimica

mimica

    Advanced Member

  • Members
  • PipPipPip
  • 406 posts
  • 602 thanks
  • LocationNovi Bečej, Vojvodina, Srbija

Profesionalac (2003)

 

ny9sunizmhj8jl2s9ezl.jpg

Comedy | Drama - 104 min.

Xvid: 700MB

 

IMDb:

Please Login or Register to see this Hidden Content

Please Login or Register to see this Hidden Content

Download:

Please Login or Register to see this Hidden Content



logo.png116555.giflogo.png


Thanked by 103 Members:

#2
Wolf 13

Wolf 13

    Advanced Member

  • Members
  • PipPipPip
  • 426 posts
  • 33639 thanks
Profesionalac (2003) DVDrip E-AC3 x264 by Wolf
(MKV)
 
XVw4nfz.jpg
 

Please Login or Register to see this Hidden Content

 

General
Unique ID                   : 4410360987803153816532845937443535265 (0x3516795C76EFD2E93085856ACB4F9A1)
Complete name               : Profesionalac (2003) DVDrip E-AC3 x264 by Wolf.mkv
Format                      : Matroska
Format version              : Version 4 / Version 2
File size                   : 1.16 GiB
Duration                    : 1 h 35 min
Overall bit rate            : 1 739 kb/s
Encoded date                : UTC 2018-10-23 13:21:17 / UTC 2018-10-23T07:39:23Z
Writing application         : mkvmerge v28.0.0 ('Voice In My Head') 64-bit
Writing library             : libebml v1.3.6 + libmatroska v1.4.9 / Lavf57.7.2
 
Video
ID                          : 1
Format                      : AVC
Format/Info                 : Advanced Video Codec
Format profile              : High [email protected]
Format settings             : CABAC / 8 Ref Frames
Format settings, CABAC      : Yes
Format settings, ReFrames   : 8 frames
Codec ID                    : V_MPEG4/ISO/AVC
Duration                    : 1 h 35 min
Bit rate                    : 1 500 kb/s
Width                       : 720 pixels
Height                      : 464 pixels
Display aspect ratio        : 16:9
Original display aspect rat : 5:3
Frame rate mode             : Constant
Frame rate                  : 25.000 FPS
Color space                 : YUV
Chroma subsampling          : 4:2:0
Bit depth                   : 10 bits
Scan type                   : Progressive
Bits/(Pixel*Frame)          : 0.180
Stream size                 : 989 MiB (83%)
Title                       : Profesionalac (2003)
Writing library             : x264 core 155 r2901 7d0ff22
Encoding settings           : cabac=1 / ref=8 / deblock=1:-1:-1 / analyse=0x3:0x133 / me=umh / subme=9 / psy=1 / psy_rd=1.00:0.15 / mixed_ref=1 / me_range=16 / chroma_me=1 / trellis=2 / 8x8dct=1 / cqm=0 / deadzone=21,11 / fast_pskip=1 / chroma_qp_offset=-3 / threads=6 / lookahead_threads=1 / sliced_threads=0 / nr=0 / decimate=1 / interlaced=0 / bluray_compat=0 / constrained_intra=0 / bframes=3 / b_pyramid=2 / b_adapt=2 / b_bias=0 / direct=3 / weightb=1 / open_gop=0 / weightp=2 / keyint=250 / keyint_min=25 / scenecut=40 / intra_refresh=0 / rc_lookahead=60 / rc=2pass / mbtree=1 / bitrate=1500 / ratetol=1.0 / qcomp=0.60 / qpmin=0 / qpmax=81 / qpstep=4 / cplxblur=20.0 / qblur=0.5 / vbv_maxrate=150000 / vbv_bufsize=187500 / nal_hrd=none / filler=0 / ip_ratio=1.40 / aq=1:1.00
Language                    : Serbian
Default                     : Yes
Forced                      : No
Color range                 : Limited
Color primaries             : BT.601 PAL
Transfer characteristics    : BT.709
Matrix coefficients         : BT.601
Statistics Tags Issue       : mkvmerge v28.0.0 ('Voice In My Head') 64-bit 2018-10-23 13:21:17 / mkvmerge v28.0.0 ('Voice In My Head') 64-bit 2018-10-23 13:21:17 / UTC 2018-10-23T07:39:23Z
FromStats_BitRate           : 1499680
FromStats_Duration          : 01:34:19.000000000
FromStats_FrameCount        : 141475
FromStats_StreamSize        : 1060836415
 
Audio
ID                          : 2
Format                      : E-AC-3
Format/Info                 : Enhanced Audio Coding 3
Codec ID                    : A_EAC3
Duration                    : 1 h 35 min
Bit rate mode               : Constant
Bit rate                    : 256 kb/s
Channel(s)                  : 6 channels
Channel positions           : Front: L C R, Side: L R, LFE
Sampling rate               : 48.0 kHz
Frame rate                  : 187.500 FPS (256 SPF)
Compression mode            : Lossy
Delay relative to video     : -5 ms
Stream size                 : 175 MiB (15%)
Title                       : Profesionalac (2003)
Language                    : Serbian
Service kind                : Complete Main
Default                     : Yes
Forced                      : No
Statistics Tags Issue       : mkvmerge v28.0.0 ('Voice In My Head') 64-bit 2018-10-23 13:21:17 / mkvmerge v28.0.0 ('Voice In My Head') 64-bit 2018-10-23 13:21:17 / UTC 2018-10-23T07:39:23Z
FromStats_BitRate           : 256000
FromStats_Duration          : 01:35:27.904000000
FromStats_FrameCount        : 178997
FromStats_StreamSize        : 183292928
 
epYscVA.png
Hidden Content
You'll be able to see the hidden content once you thank this post.
 
Be1vkyt.png
XPhM9h8.jpg


Thanked by 148 Members:

#3
Zoran_

Zoran_

    Gold Member

  • VIP
  • PipPipPipPipPipPip
  • 5,992 posts
  • 149888 thanks
Profesionalac (2003)
 
 
Profesionalac2003.png
 
imdb6.jpg
 

Please Login or Register to see this Hidden Content

 
Do juce univerzitetski profesor i pisac-boem, pripadnik beogradske inteligencije i vatreni protivnikMilosevicevog rezima, Teja je danas direktor jedne velike izdavacke kuce. Jednog dana, u njegovu kancelariju, potpuno nepozvan ulazi neobican stranac, sa velikim koferom u ruci. Taj covek je Luka, bivsi agent srpske sluzbe bezbednosti, danas taksista. Odjednom pocinje suceljavanje ova dva coveka koje je puno iznenadenja i neverovatnih obrta. Saznajemo da je Lukina misija poslednjih deset godina bila svakodnevno uhodjenje Teje, pisanje izvestaja o njegovim postupcima,spijuniranje do najintimnijih trenutaka u njegovom zivotu. Postepeno, iz proslosti pocinju da nadolaze poslednjih deset godina zivota dvojice ljudi potpuno suprotnih sudbina. Odvija se pred nama hronika jednog vremena, od najneverovatnijih situacija, cesto dirljivih, ponekad neodoljivo smesnih, do najtragicnijih dogadaja i najcrnjih ratnih prica u istoriji borbe za slobodu jednog naroda na kraju dvadesetog veka. 
 
0rjf8ivkrg.png
 
oLRECpF.gif
 
xyoiXJk.jpg
 
downloade0cdd.gif
 
Profesionalac (2003) DVDRip.x264.mkv
 
SFYUbuP.jpg
 
Hidden Content
You'll be able to see the hidden content once you thank this post.
 

Molbe za moje linkove, šaljite na PP.

 

Zabranjeno je kopiranje mojih linkova,reupload i postavljanje na druge forume!


Thanked by 118 Members:



0 user(s) are reading this topic

0 members, 0 guests, 0 anonymous users