Jump to content

Dobrodošli na Balkandownload.org
Tražite domaće knjige, exyu magazine, sinhronizirane crtane filmove, PC i ostale igre, strane i domaće filmove, dokumentarce, stranu i domaću muziku, itd. ? Ne morate tražiti dalje jer sve ćete to naći kod nas, uredno postavljeno i spremno za download. Osim toga registracijom možete sudjelovati u raznim postojećim temama na forumu, otvarati nove teme, sudjelovati u chatu i još mnogo toga. Ako već imaš otvoren račun, logiraj se ovde ,a ako želiš saznati zašto smo najbolji otvori novi račun i uverite se sami :)
Photo

Bilo Jednom...Dokumentarac o novosadskoj rock sceni (2006)


  • Please log in to reply
No replies to this topic

#1
pparadiso

pparadiso

    Advanced Member

  • Members
  • PipPipPip
  • 817 posts
  • 292 thanks

Bilo Jednom...Dokumentarac o novosadskoj rock sceni (2006)

coverkmz.jpg

Pogledajte dokumentarni film o novosadskoj punk-rock sceni devedesetih godina 20.veka. Grupe koje su stvorile mini-epohu: Generacija bez buducnosti, Ritam nereda, Love Hunters, Atheist Rap, Zbogom Bruce Lee, Vrisak generacije, Obojeni program, Boye… imali su mnogo veci uticaj nego sto se moglo ocekivati, ako se uzme vreme i prostor kada i gde su nastali. Bile su to godine nasilja i straha, krvavog rata udaljenog samo par stotina kilometara odatle. Ovo je podsecanje na duh koji je sacuvao mentalno zdravlje vise hiljada mladih, koji su svoju mladost ziveli u to doba. Saznajte kako je sve pocelo i kako se na kraju sve zavrsilo. I da li se stvarno zavrsilo?

Reditelj    Jovan Djeric
Producent     Jovan Djeric
Napisao     Jovan Djeric - Minja Dundjerski
Muzika      Various bands
Fotografija     Lucian Muntean
Urednik     Zoran Nikolic
Distributer     Produkcija i27!
Izdanje     October 27, 2006 (Serbia)
Trajanje    43 min.
Jezik       Serbian

bilojednom.jpg
 

Format                                   : AVI
Format/Info                              : Audio Video Interleave
File size                                : 300 MiB
Duration                                 : 43mn 10s
Overall bit rate                         : 973 Kbps
Writing application                      : MEncoder SVN-r30881(20100311-gcc4.3.3)
Writing library                          : MPlayer

Video
ID                                       : 0
Format                                   : MPEG-4 Visual
Format profile                           : Advanced [email protected]
Format settings, BVOP                    : 2
Format settings, QPel                    : No
Format settings, GMC                     : No warppoints
Format settings, Matrix                  : Default (H.263)
Codec ID                                 : XVID
Codec ID/Hint                            : XviD
Duration                                 : 43mn 10s
Bit rate                                 : 832 Kbps
Width                                    : 640 pixels
Height                                   : 360 pixels
Display aspect ratio                     : 16:9
Frame rate                               : 25.000 fps
Color space                              : YUV
Chroma subsampling                       : 4:2:0
Bit depth                                : 8 bits
Scan type                                : Progressive
Compression mode                         : Lossy
Bits/(Pixel*Frame)                       : 0.145
Stream size                              : 257 MiB (86%)
Writing library                          : XviD 1.2.1 (UTC 2008-12-04)

Audio
ID                                       : 1
Format                                   : MPEG Audio
Format version                           : Version 1
Format profile                           : Layer 3
Mode                                     : Joint stereo
Mode extension                           : MS Stereo
Codec ID                                 : 55
Codec ID/Hint                            : MP3
Duration                                 : 43mn 10s
Bit rate mode                            : Constant
Bit rate                                 : 128 Kbps
Channel(s)                               : 2 channels
Sampling rate                            : 44.1 KHz
Compression mode                         : Lossy
Delay relative to video                  : 40ms
Stream size                              : 39.5 MiB (13%)
Alignment                                : Aligned on interleaves
Interleave, duration                     : 26 ms (0.65 video frame)
Interleave, preload duration             : 522 ms
Writing library                          : LAME3.98

 


uplobox.png

 

 

Please Login or Register to see this Hidden Content


bongos.gif


Edited by pparadiso, 08 April 2013 - 20:39.


Thanked by 2 Members:
beyonder , Ivan2010



0 user(s) are reading this topic

0 members, 0 guests, 0 anonymous users