Jump to content

Dobrodošli na Balkandownload.org
Tražite domaće knjige, exyu magazine, sinhronizirane crtane filmove, PC i ostale igre, strane i domaće filmove, dokumentarce, stranu i domaću muziku, itd. ? Ne morate tražiti dalje jer sve ćete to naći kod nas, uredno postavljeno i spremno za download. Osim toga registracijom možete sudjelovati u raznim postojećim temama na forumu, otvarati nove teme, sudjelovati u chatu i još mnogo toga. Ako već imaš otvoren račun, logiraj se ovde ,a ako želiš saznati zašto smo najbolji otvori novi račun i uverite se sami :)
Photo

Rok Dezerteri - Sad se jasno vidi (1990)


  • Please log in to reply
No replies to this topic

#1
pparadiso

pparadiso

    Advanced Member

  • Members
  • PipPipPip
  • 817 posts
  • 284 thanks

Rok Dezerteri - Sad se jasno vidi (1990)

covermzo.jpg

Dokumentarac o "Novom Talasu" u Beogradu pocetkom 80-ih ...

rockdezerterisadsejasno.jpg
 

Format                                   : AVI
Format/Info                              : Audio Video Interleave
File size                                : 454 MiB
Duration                                 : 47mn 21s
Overall bit rate                         : 1 341 Kbps
Writing application                      : Lavf52.61.0

Video
ID                                       : 0
Format                                   : MPEG-4 Visual
Format profile                           : [email protected]
Format settings, BVOP                    : No
Format settings, QPel                    : No
Format settings, GMC                     : No warppoints
Format settings, Matrix                  : Default (H.263)
Codec ID                                 : XVID
Codec ID/Hint                            : XviD
Duration                                 : 47mn 21s
Bit rate                                 : 1 200 Kbps
Width                                    : 640 pixels
Height                                   : 480 pixels
Display aspect ratio                     : 4:3
Frame rate                               : 29.970 fps
Color space                              : YUV
Chroma subsampling                       : 4:2:0
Bit depth                                : 8 bits
Scan type                                : Progressive
Compression mode                         : Lossy
Bits/(Pixel*Frame)                       : 0.130
Stream size                              : 406 MiB (89%)
Writing library                          : XviD 1.2.1 (UTC 2008-12-04)

Audio
ID                                       : 1
Format                                   : MPEG Audio
Format version                           : Version 1
Format profile                           : Layer 3
Mode                                     : Joint stereo
Mode extension                           : MS Stereo
Codec ID                                 : 55
Codec ID/Hint                            : MP3
Duration                                 : 47mn 21s
Bit rate mode                            : Constant
Bit rate                                 : 128 Kbps
Channel(s)                               : 2 channels
Sampling rate                            : 44.1 KHz
Compression mode                         : Lossy
Stream size                              : 43.4 MiB (10%)
Alignment                                : Aligned on interleaves
Interleave, duration                     : 26 ms (0.78 video frame)
Interleave, preload duration             : 78 ms
Writing library                          : LAME3.97

 


filefactoryj.png

 

 

Please Login or Register to see this Hidden Content


bongos.gif


Edited by pparadiso, 08 April 2013 - 20:42.


Thanked by 1 Member:
vicky197



0 user(s) are reading this topic

0 members, 0 guests, 0 anonymous users