Jump to content

Dobrodošli na Balkandownload.org
Tražite domaće knjige, exyu magazine, sinhronizirane crtane filmove, PC i ostale igre, strane i domaće filmove, dokumentarce, stranu i domaću muziku, itd. ? Ne morate tražiti dalje jer sve ćete to naći kod nas, uredno postavljeno i spremno za download. Osim toga registracijom možete sudjelovati u raznim postojećim temama na forumu, otvarati nove teme, sudjelovati u chatu i još mnogo toga. Ako već imaš otvoren račun, logiraj se ovde ,a ako želiš saznati zašto smo najbolji otvori novi račun i uverite se sami :)
Photo

Valter brani Sarajevo (1972)


3 replies to this topic

#1
MaliGrizeBeton

MaliGrizeBeton

    Silver Member

  • Members
  • PipPipPipPipPip
  • 2,524 posts
  • 22634 thanks

Valter brani Sarajevo (1972)



Thanked by 49 Members:
artcamora , lemi1989 , JO94 , dobrodrvo , Josip49 , Zelenac1 , b50andi , elcid036 , miconny , misko.misko , Obelix1969 , tijana_s , sloznabraca , dzinglll , ivannk82 , tushma , james12320 , ljudozderka8 , nireB , zoranveli , urosevac , mrmotcina , rango343 , ghostmax , qwerty19 , zok , zeljko65 , fanSte_97 , Arnautovic54 , zmaj007 , Milos Gordic , mercury99 , leonardo39 , electrica , MomirD , okmaxa , toco222 , sanjaradojevic , gringo74 , mikihv , milan1968 , apolon6 , bataraka , milemoja , necutikazat , mrkee , BranimirBarnak , Exomega , mustafa_50

#2
tttrojannnn

tttrojannnn

    Bronze Member

  • Members
  • PipPipPipPip
  • 1,981 posts
  • 17798 thanks

Valter brani Sarajevo (1972) TVRip 720p x264-daredule
Remasterizovana verzija


valterbranisarajevo1972.jpg

Žanr: Ratni
Režija: Hajrudin Krvavac

U glavnim ulogama: Velimir Bata Živojinović, Rade Marković, Ljubiša Samardžić, Dragomir Gidra Bojanić, Neda Spasojević, Slobodan Dimitrijević, Hanjo Hase, Rolf Remer i drugi.

 



Please Login or Register to see this Hidden Content



Valter.Brani.Sarajevo.1972.TVRip.720p.x264-daredule.mkv
Size: 801846461 bytes (764.70 MiB), duration: 02:09:18, avg.bitrate: 827 kb/s
Audio: aac, 24000 Hz, 5.1, s16 (srp)
Video: h264, yuv420p, 1280x594, 25.00 fps® (bos)


valterbranisarajevo1972t.jpg

Hidden Content
You'll be able to see the hidden content once you thank this post.

 




Edited by tttrojannnn, 10 May 2015 - 19:02.


Thanked by 214 Members:

#3
Wolf 13

Wolf 13

    Advanced Member

  • Members
  • PipPipPip
  • 426 posts
  • 33632 thanks
Valter brani Sarajevo (1972) RTL Remastered E-AC3 x264 by Wolf
(MKV)
 
zl9LonJ.jpg
 

Please Login or Register to see this Hidden Content

 

General
Unique ID                   : 111522066734335891503157999368246032290 (0x53E65E68423797E9B948E891B66677A2)
Complete name               : Valter brani Sarajevo (1972) RTL Remastered E-AC3 x264 by Wolf.mkv
Format                      : Matroska
Format version              : Version 4 / Version 2
File size                   : 1.58 GiB
Duration                    : 2 h 8 min
Overall bit rate            : 1 758 kb/s
Encoded date                : UTC 2018-08-27 12:31:49 / UTC 2018-08-27T10:11:18Z
Writing application         : mkvmerge v26.0.0 ('In The Game') 64-bit
Writing library             : libebml v1.3.6 + libmatroska v1.4.9 / Lavf57.7.2
 
Video
ID                          : 1
Format                      : AVC
Format/Info                 : Advanced Video Codec
Format profile              : High [email protected]
Format settings             : CABAC / 4 Ref Frames
Format settings, CABAC      : Yes
Format settings, ReFrames   : 4 frames
Codec ID                    : V_MPEG4/ISO/AVC
Duration                    : 2 h 8 min
Bit rate                    : 1 500 kb/s
Width                       : 720 pixels
Height                      : 400 pixels
Display aspect ratio        : 16:9
Frame rate mode             : Constant
Frame rate                  : 25.000 FPS
Color space                 : YUV
Chroma subsampling          : 4:2:0
Bit depth                   : 10 bits
Scan type                   : Progressive
Bits/(Pixel*Frame)          : 0.208
Stream size                 : 1.31 GiB (83%)
Title                       : Valter brani Sarajevo (1972)
Writing library             : x264 core 155 r2901 7d0ff22
Encoding settings           : cabac=1 / ref=3 / deblock=1:0:0 / analyse=0x3:0x113 / me=hex / subme=7 / psy=1 / psy_rd=1.00:0.00 / mixed_ref=1 / me_range=16 / chroma_me=1 / trellis=1 / 8x8dct=1 / cqm=0 / deadzone=21,11 / fast_pskip=1 / chroma_qp_offset=-2 / threads=3 / lookahead_threads=1 / sliced_threads=0 / nr=0 / decimate=1 / interlaced=0 / bluray_compat=0 / constrained_intra=0 / bframes=3 / b_pyramid=2 / b_adapt=1 / b_bias=0 / direct=1 / weightb=1 / open_gop=0 / weightp=2 / keyint=250 / keyint_min=25 / scenecut=40 / intra_refresh=0 / rc_lookahead=40 / rc=2pass / mbtree=1 / bitrate=1500 / ratetol=1.0 / qcomp=0.60 / qpmin=0 / qpmax=81 / qpstep=4 / cplxblur=20.0 / qblur=0.5 / vbv_maxrate=150000 / vbv_bufsize=187500 / nal_hrd=none / filler=0 / ip_ratio=1.40 / aq=1:1.00
Language                    : Serbian
Default                     : Yes
Forced                      : No
Color range                 : Limited
Color primaries             : BT.601 PAL
Transfer characteristics    : BT.709
Matrix coefficients         : BT.601
Statistics Tags Issue       : mkvmerge v26.0.0 ('In The Game') 64-bit 2018-08-27 12:31:49 / mkvmerge v26.0.0 ('In The Game') 64-bit 2018-08-27 12:31:49 / UTC 2018-08-27T10:11:18Z
FromStats_BitRate           : 1500170
FromStats_Duration          : 02:08:19.840000000
FromStats_FrameCount        : 192495
FromStats_StreamSize        : 1443884448
 
Audio
ID                          : 2
Format                      : E-AC-3
Format/Info                 : Enhanced Audio Coding 3
Codec ID                    : A_EAC3
Duration                    : 2 h 8 min
Bit rate mode               : Constant
Bit rate                    : 256 kb/s
Channel(s)                  : 6 channels
Channel positions           : Front: L C R, Side: L R, LFE
Sampling rate               : 48.0 kHz
Frame rate                  : 187.500 FPS (256 SPF)
Compression mode            : Lossy
Delay relative to video     : -21 ms
Stream size                 : 235 MiB (15%)
Title                       : Walter Defends Sarajevo (1972)
Language                    : Serbian
Service kind                : Complete Main
Default                     : Yes
Forced                      : No
Statistics Tags Issue       : mkvmerge v26.0.0 ('In The Game') 64-bit 2018-08-27 12:31:49 / mkvmerge v26.0.0 ('In The Game') 64-bit 2018-08-27 12:31:49 / UTC 2018-08-27T10:11:18Z
FromStats_BitRate           : 256000
FromStats_Duration          : 02:08:19.840000000
FromStats_FrameCount        : 240620
FromStats_StreamSize        : 246394880
 
k2aTdzy.png
Hidden Content
You'll be able to see the hidden content once you thank this post.
 
8cVoexb.png
M0dtecB.jpg


Thanked by 209 Members:

#4
Zoran_

Zoran_

    Gold Member

  • VIP
  • PipPipPipPipPipPip
  • 5,992 posts
  • 149877 thanks
Valter brani Sarajevo (1972)
 
 
ValterbraniSarajevo1972.png
 
Su6Ksi6.jpg
 

Please Login or Register to see this Hidden Content

 
Nemackim armijama u povlacenju ocajnicki treba gorivo. Valter, zagonetni i harizmaticni vodja pokreta otpora moze da ugrozi njihove zalihe. Nemci preduzimaju lukav plan da uklone tu prepreku ...
 
z4rp5imidpe.png
 
vK4YOGk.jpg
 
ybDGsQz.jpg
 
Oets6ur.gif
 
Valter brani Sarajevo (1972) REMASTERED HDTVRip.x264.mkv 
 
SFYUbuP.jpg
 
Hidden Content
You'll be able to see the hidden content once you thank this post.

Molbe za moje linkove, šaljite na PP.

 

Zabranjeno je kopiranje mojih linkova,reupload i postavljanje na druge forume!


Thanked by 85 Members:



0 user(s) are reading this topic

0 members, 0 guests, 0 anonymous users