Jump to content

Dobrodošli na Balkandownload.org
Tražite domaće knjige, exyu magazine, sinhronizirane crtane filmove, PC i ostale igre, strane i domaće filmove, dokumentarce, stranu i domaću muziku, itd. ? Ne morate tražiti dalje jer sve ćete to naći kod nas, uredno postavljeno i spremno za download. Osim toga registracijom možete sudjelovati u raznim postojećim temama na forumu, otvarati nove teme, sudjelovati u chatu i još mnogo toga. Ako već imaš otvoren račun, logiraj se ovde ,a ako želiš saznati zašto smo najbolji otvori novi račun i uverite se sami :)
Photo

Dorucak sa djavolom (1971)


2 replies to this topic

#1
MaliGrizeBeton

MaliGrizeBeton

    Silver Member

  • Members
  • PipPipPipPipPip
  • 2,524 posts
  • 14119 thanks

Dorucak sa djavolom (1971)

 

Please Login or Register to see this Hidden Content

 

Rezija: Miroslav Antic

 
Uloge: Velimir Bata Zivojinovic, Mira Stupica, Dragomir Gidra Bojanic, Vladan Zivkovic, Rade Kojadinovic, Fedja Tapavicki, Stevan Salajic, Milutin Mirkovic, Slavko Djordjevic, Dragana Petronijevic, Ilija Basic, Milica Radakovic, Erika Marjas Brzic, Milivoje Popovic Mavid, Ivan Cirkovic...
Opis: Avgusta 1945. godine Ministarstvo snabdevanja Demokratske Federativne Jugoslavije je raspisalo prvi obavezni otkup zitarica. Tako je pocela jedna nova revolucija na selu...


Thanked by 9 Members:
IkarDedal , laki44 , Perhan , vesnapedja , marzaneti , kormi17 , Petronije11 , gile89 , atilaF

#2
LEMONZOO

LEMONZOO

    Advanced Member

  • VIP
  • PipPipPip
  • 898 posts
  • 10209 thanks
  • LocationGavran Mahala

Doručak sa djavolom (1971) aka Breakfast with the Devil

250px-d094d0bed180d18fpu56.jpg

Please Login or Register to see this Hidden Content


The story of the collapse of Vojvodinian village during the great flood in 1947. The people, their fate and suffering, love and deaths.

General
Format                      : AVI
Format/Info                 : Audio Video Interleave
File size                   : 658 MiB
Duration                    : 1h 22mn
Overall bit rate            : 1 114 Kbps
Movie name                  : Dorucak.Sa.Djavolom.1971

Video
ID                          : 0
Format                      : MPEG-4 Visual
Format profile              : [email protected]
Format settings, BVOP       : No
Format settings, QPel       : No
Format settings, GMC        : No warppoints
Format settings, Matrix     : Default (H.263)
Codec ID                    : DIVX
Codec ID/Info               : Project Mayo
Codec ID/Hint               : DivX 4
Duration                    : 1h 22mn
Bit rate                    : 973 Kbps
Width                       : 512 pixels
Height                      : 384 pixels
Display aspect ratio        : 4:3
Frame rate                  : 29.970 fps
Color space                 : YUV
Chroma subsampling          : 4:2:0
Bit depth                   : 8 bits
Scan type                   : Progressive
Compression mode            : Lossy
Bits/(Pixel*Frame)          : 0.165
Stream size                 : 574 MiB (87%)
Writing library             : FFmpeg0.4.9-pre1b4721

Audio
ID                          : 1
Format                      : MPEG Audio
Format version              : Version 1
Format profile              : Layer 3
Mode                        : Joint stereo
Mode extension              : MS Stereo
Codec ID                    : 55
Codec ID/Hint               : MP3
Duration                    : 1h 22mn
Bit rate mode               : Constant
Bit rate                    : 128 Kbps
Channel(s)                  : 2 channels
Sampling rate               : 44.1 KHz
Compression mode            : Lossy
Stream size                 : 75.6 MiB (11%)
Alignment                   : Aligned on interleaves
Interleave, duration        : 26 ms (0.78 video frame)



dorucak.sa.djavolom.1euuoj.jpg

dorucak.sa.djavolom.1ccuqr.jpg

dorucak.sa.djavolom.1saunc.jpg

dorucak.sa.djavolom.1mpur6.jpg

dorucak.sa.djavolom.1sau30.jpg

Hidden Content
You'll be able to see the hidden content once you thank this post.


Thanked by 21 Members:
Automatika , kumekonja , bracadavid , vpavlovicpesic , gledalacbanana , sandrasuki , trifasd , IkarDedal , Mikele Placido , netrebamime , abc123 , papak333 , laki44 , nino89 , Cocco Bill , drnch , Perhan , Petronije11 , vesnapedja , beograd75 , draganadragana2010

#3
LEMONZOO

LEMONZOO

    Advanced Member

  • VIP
  • PipPipPip
  • 898 posts
  • 10209 thanks
  • LocationGavran Mahala

General : Dorucak sa djavolom (1971).mp4
Format : MPEG-4 at 1 147 kb/s
Length : 686 MiB for 1 h 23 min 40 s 240 ms

Video #0 : AVC at 1 065 kb/s / 1 065 kb/s
Aspect : 720 x 576 (1.818) at 25.000 fps

Audio #0 : AAC at 128 kb/s
Infos : 2 channels, 44.1 kHz



dorucaksadjavolom197166u73.jpg

dorucaksadjavolom1971c1uh5.jpg

dorucaksadjavolom197187ujq.jpg

dorucaksadjavolom1971yhu97.jpg

dorucaksadjavolom1971rzu31.jpg


Hidden Content
You'll be able to see the hidden content once you thank this post.


Thanked by 18 Members:
rumplocica , Gagisha , kumekonja , direhard , vpavlovicpesic , Filaret , sanolito11 , sandrasuki , draganbauk , trifasd , Mikele Placido , netrebamime , abc123 , nenad027 , danep , papak333 , bratobulje , beograd75



0 user(s) are reading this topic

0 members, 0 guests, 0 anonymous users