Jump to content

Dobrodošli na Balkandownload.org
Tražite domaće knjige, exyu magazine, sinhronizirane crtane filmove, PC i ostale igre, strane i domaće filmove, dokumentarce, stranu i domaću muziku, itd. ? Ne morate tražiti dalje jer sve ćete to naći kod nas, uredno postavljeno i spremno za download. Osim toga registracijom možete sudjelovati u raznim postojećim temama na forumu, otvarati nove teme, sudjelovati u chatu i još mnogo toga. Ako već imaš otvoren račun, logiraj se ovde ,a ako želiš saznati zašto smo najbolji otvori novi račun i uverite se sami :)
Photo

Covjek koga treba ubiti (1979)


  • Please log in to reply
2 replies to this topic

#1
MaliGrizeBeton

MaliGrizeBeton

    Silver Member

  • Members
  • PipPipPipPipPip
  • 2,524 posts
  • 3853 thanks

Covjek koga treba ubiti (1979)

 
covjek-koga-treba-ubiti.png
 
[reimg]

Please Login or Register to see this Hidden Content

[/reimg]
 

      Format : AVI
      File size : 443 MiB
      Duration : 1h 40mn
      Bit rate : 479 Kbps
      Width : 416 pixels
      Height : 320 pixels
      Frame rate : 29.970 fps
 

Please Login or Register to see this Hidden Content

 
Legenda o caru Scepanu Malom
Zemlja: Jugoslavija
 
Produkcija: Croatia Film
Filmski studio Titograd
Glavne uloge: Zvonimir Crnko,Vladimir Popovic,Ranko Kovacevic,Mate Ergovic
 
Slobodna interpretacija legende o crnogorskom samozvanom vladaru Šćepanu Malom događa se na dva, podjednako zanimljiva plana. U prvom planu prikazuje se pakao s hijerarhijom vlasti, a tiče se Sotone koji pokušava stvoriti balans između sebe i Crkve. Ubojstvo ruskog cara će dovesti do toga da Katarina Velika preuzima tron, što Sotoni nije prihvatljivo, te on šalje on šalje vlastitog poslanika kako bi zamijenio carevo mjesto. U drugom planu prikazuje se Crna Gora toga vremena. Crnogorci u putniku, travaru Šćepanu, prepoznaju tada svrgnutog ruskog cara Petra III i proglašavaju ga vladarom. Šćepan započinje vladarski život uvodeći mir među zavađena crnogorska plemena, ali velika ljubav pomuti njegove planove. Naime, zaljubljuje se u lijepu Grkinju, ali kad je odluči oženiti, njezin je otac šalje u samostan. Nepokolebljivi Šćepan otima je iz samostana, zbog čega ga razbješnjeli Grk ubija. Dolaskom Sotonina poslanika pakao proguta tijelo Šćepana Malog, tajanstvene ličnosti crnogorske povijesti...
 
down-02.png

Please Login or Register to see this Hidden Content



Thanked by 5 Members:
james12320 , cubica , dorosevski , kingmaxxx , coa1984

#2
LEMONZOO

LEMONZOO

    Advanced Member

  • VIP
  • PipPipPip
  • 739 posts
  • 2945 thanks
  • LocationGavran Mahala

Covjek.koga.treba.ubiti.1979.TVRip.DivX

Covjek_koga_treba_ubiti.jpg

Please Login or Register to see this Hidden Content

After the murder of the Russian Emperor Peter III, who was succeeded by Empress Catherine, Satan decides that the balance between good and evil on Earth has been destabilized. In order to set things right, he sends his representative to Earth - the teacher Farfa, who bears an unusual resemblance to Peter III. His mission is to seize power from the old Duke of Montenegro, and then to take back the Russian throne as Peter III. The people of Montenegro accept Farfa as their new leader, and he proclaims himself the new Emperor, Scepan Mali, successfully resisting an invasion by the Turks. Farfa is touched by the Montenegrins' kindness and courage, falls in love with the beautiful Elfa, and fails to follow Satan's plan. Not one to be crossed, Satan sets out to kill him.


General
Complete name               : Covjek.koga.treba.ubiti.1979.TVRip.DivX.avi
Format                      : AVI
Format/Info                 : Audio Video Interleave
File size                   : 1 001 MiB
Duration                    : 1h 40mn
Overall bit rate            : 1 391 Kbps

Video
ID                          : 0
Format                      : MPEG-4 Visual
Format settings, BVOP       : 1
Format settings, QPel       : No
Format settings, GMC        : No warppoints
Format settings, Matrix     : Default (H.263)
Muxing mode                 : Packed bitstream
Codec ID                    : DX50
Codec ID/Hint               : DivX 5
Duration                    : 1h 40mn
Bit rate                    : 1 253 Kbps
Width                       : 720 pixels
Height                      : 576 pixels
Display aspect ratio        : 4:3
Frame rate                  : 25.000 fps
Standard                    : PAL
Color space                 : YUV
Chroma subsampling          : 4:2:0
Bit depth                   : 8 bits
Scan type                   : Progressive
Compression mode            : Lossy
Bits/(Pixel*Frame)          : 0.121
Stream size                 : 902 MiB (90%)
Title                       : Video
Writing library             : DivX 3013

Audio
ID                          : 1
Format                      : MPEG Audio
Format version              : Version 1
Format profile              : Layer 3
Codec ID                    : 55
Codec ID/Hint               : MP3
Duration                    : 1h 40mn
Bit rate mode               : Constant
Bit rate                    : 128 Kbps
Channel(s)                  : 2 channels
Sampling rate               : 44.1 KHz
Compression mode            : Lossy
Stream size                 : 92.1 MiB (9%)
Alignment                   : Split accross interleaves
Interleave, duration        : 40 ms (1.00 video frame)
Interleave, preload duratio : 500 ms
Title                       : Audio

Covjek_koga_treba_ubiti_1979_TVRip_Div_X

Covjek_koga_treba_ubiti_1979_TVRip_Div_X

Covjek_koga_treba_ubiti_1979_TVRip_Div_X

Covjek_koga_treba_ubiti_1979_TVRip_Div_X

Hidden Content
You'll be able to see the hidden content once you thank this post.


Thanked by 17 Members:
Biotloneta , james12320 , draganbauk , babomlat , Нинорота , liquid , [email protected] , jumanjinz , dajkan , coa1984 , Gedza90 , bratobulje , pero60 , dubo , bumbo0123 , Cyrano , nesaBB

#3
Zoran_

Zoran_

    Silver Member

  • VIP
  • PipPipPipPipPip
  • 2,935 posts
  • 13378 thanks

Covjek koga treba ubiti (1979)


Covjekkogatrebaubiti1979.png

imdb6.jpg

Please Login or Register to see this Hidden Content


Slobodna interpretacija legende o crnogorskom samozvanom vladaru Šćepanu Malom događa se na dva, podjednako zanimljiva plana. U prvom planu prikazuje se pakao s hijerarhijom vlasti, a tiče se Sotone koji pokušava stvoriti balans između sebe i Crkve. Ubojstvo ruskog cara će dovesti do toga da Katarina Velika preuzima tron, što Sotoni nije prihvatljivo, te on šalje on šalje vlastitog poslanika kako bi zamijenio carevo mjesto. U drugom planu prikazuje se Crna Gora toga vremena. Crnogorci u putniku, travaru Šćepanu, prepoznaju tada svrgnutog ruskog cara Petra III i proglašavaju ga vladarom. Šćepan započinje vladarski život uvodeći mir među zavađena crnogorska plemena, ali velika ljubav pomuti njegove planove. Naime, zaljubljuje se u lijepu Grkinju, ali kad je odluči oženiti, njezin je otac šalje u samostan. Nepokolebljivi Šćepan otima je iz samostana, zbog čega ga razbješnjeli Grk ubija. Dolaskom Sotonina poslanika pakao proguta tijelo Šćepana Malog, tajanstvene ličnosti crnogorske povijesti...

gfcia9js4l4.png

Covjekkogatrebaubiti1979.avi.gif

Covjekkogatrebaubiti1979.avi.jpg

downloade0cdd.gif

Covjek koga treba ubiti (1979) DVDRip.XviD.avi

filesflesh2.jpg

Hidden Content
You'll be able to see the hidden content once you thank this post.

Molbe za moje linkove, šaljite na PP.


Zabranjeno je kopiranje mojih linkova,reupload i postavljanje na druge forume!


Thanked by 41 Members:
filgamus13 , StrangeCase1988 , mturcan , pa92 , stefanovicmilan , draganbauk , Grobar87 , babomlat , cowboy6812 , rodoljub68 , caki1980 , nenad027 , nuke , djelle , Madcap , Нинорота , Prene , volimfilm007 , mehonja , aleksapet , filmbuff , goranruzicic , mokranjac , zlatkozr , novicanovica , Lejz , balkankankan , jumanjinz , Martian21 , dajkan , Cocco Bill , robertp , coa1984 , Gedza90 , chadjox , dubo , zoltan , bumbo0123 , bratobulje , Cyrano , senilni



0 user(s) are reading this topic

0 members, 0 guests, 0 anonymous users