Jump to content

Dobrodošli na Balkandownload.org
Tražite domaće knjige, exyu magazine, sinhronizirane crtane filmove, PC i ostale igre, strane i domaće filmove, dokumentarce, stranu i domaću muziku, itd. ? Ne morate tražiti dalje jer sve ćete to naći kod nas, uredno postavljeno i spremno za download. Osim toga registracijom možete sudjelovati u raznim postojećim temama na forumu, otvarati nove teme, sudjelovati u chatu i još mnogo toga. Ako već imaš otvoren račun, logiraj se ovde ,a ako želiš saznati zašto smo najbolji otvori novi račun i uverite se sami :)
Photo

Kazi zasto me ostavi (1993)


2 replies to this topic

#1
MaliGrizeBeton

MaliGrizeBeton

    Silver Member

  • Members
  • PipPipPipPipPip
  • 2,524 posts
  • 22630 thanks

Kazi zasto me ostavi (1993)

File size : 700MB
 
kazi-zasto-me-ostavi.png
 
6yh7b8.jpg
 
 [info]

Please Login or Register to see this Hidden Content

 

Prica o mladom coveku koji dobije, 1991. godine poziv za vojnu vezbu i potom se nadje na 

vukovarskom frontu gde provede punih pet meseci. Vrativsi se sa fronta, mladic otkriva promene u sebi, ali 
i gradu u kome je ziveo. Potpuno izgubljen ne nalazi nacin da uspostavi kontakt sa okolinom, i kada se 
najmanje ocekuje desava mu se ljubav sa devojkom koja je prezivela sve strahote ovoga rata.
 
 [download]

Hidden Content
You'll be able to see the hidden content once you thank this post.

 



Thanked by 31 Members:
dusko51 , 303808909 , misakacarevic , rajka.bogda , stajicll , Bontonko , chefko , Nemek , Chika_Miki , neddo , JackSparrow1 , liquid , kresomirovic , grale , JaJelena , CoBJeT , duledudule , slavoljubsmeci , jamajka1 , masterlaky , jolecom , bojanastevica , tpotocnjak , zoran48 , jovicai , gemba , hajdukjovance , zorandju , iletra , kalence578 , milanzivic

#2
Wolf 13

Wolf 13

    Advanced Member

  • Members
  • PipPipPip
  • 426 posts
  • 33611 thanks
Kazi zasto me ostavi (1993) DVDrip E-AC3 x264 by Wolf
(MKV)
 
bQ6864p.jpg
 

Please Login or Register to see this Hidden Content

 

 

General
Unique ID                   : 217990363555549443436215891327043795190 (0xA3FF6AB861D896A933DE9D6FF4B878F6)
Complete name               : Kazi zasto me ostavi (1993) DVDrip E-AC3 x264 by Wolf.mkv
Format                      : Matroska
Format version              : Version 4 / Version 2
File size                   : 1.07 GiB
Duration                    : 1 h 27 min
Overall bit rate            : 1 745 kb/s
Encoded date                : UTC 2018-10-27 15:12:33 / UTC 2018-10-27T09:12:05Z
Writing application         : mkvmerge v28.1.0 ('Morning Child') 64-bit
Writing library             : libebml v1.3.6 + libmatroska v1.4.9 / Lavf57.7.2
 
Video
ID                          : 1
Format                      : AVC
Format/Info                 : Advanced Video Codec
Format profile              : High [email protected]
Format settings             : CABAC / 16 Ref Frames
Format settings, CABAC      : Yes
Format settings, ReFrames   : 16 frames
Codec ID                    : V_MPEG4/ISO/AVC
Duration                    : 1 h 27 min
Bit rate                    : 1 500 kb/s
Width                       : 718 pixels
Height                      : 480 pixels
Display aspect ratio        : 16:10
Original display aspect rat : 16:10
Frame rate mode             : Constant
Frame rate                  : 25.000 FPS
Color space                 : YUV
Chroma subsampling          : 4:2:0
Bit depth                   : 10 bits
Scan type                   : Progressive
Bits/(Pixel*Frame)          : 0.174
Stream size                 : 915 MiB (83%)
Title                       : Kazi zasto me ostavi (1993)
Writing library             : x264 core 155 r2901 7d0ff22
Encoding settings           : cabac=1 / ref=16 / deblock=1:-1:-1 / analyse=0x3:0x133 / me=umh / subme=10 / psy=1 / psy_rd=1.00:0.15 / mixed_ref=1 / me_range=24 / chroma_me=1 / trellis=2 / 8x8dct=1 / cqm=0 / deadzone=21,11 / fast_pskip=1 / chroma_qp_offset=-3 / threads=6 / lookahead_threads=1 / sliced_threads=0 / nr=0 / decimate=1 / interlaced=0 / bluray_compat=0 / constrained_intra=0 / bframes=8 / b_pyramid=2 / b_adapt=2 / b_bias=0 / direct=3 / weightb=1 / open_gop=0 / weightp=2 / keyint=250 / keyint_min=25 / scenecut=40 / intra_refresh=0 / rc_lookahead=60 / rc=2pass / mbtree=1 / bitrate=1500 / ratetol=1.0 / qcomp=0.60 / qpmin=0 / qpmax=81 / qpstep=4 / cplxblur=20.0 / qblur=0.5 / vbv_maxrate=150000 / vbv_bufsize=187500 / nal_hrd=none / filler=0 / ip_ratio=1.40 / aq=1:1.00
Language                    : Serbian
Default                     : Yes
Forced                      : No
Color range                 : Limited
Color primaries             : BT.601 PAL
Transfer characteristics    : BT.709
Matrix coefficients         : BT.601
Statistics Tags Issue       : mkvmerge v28.1.0 ('Morning Child') 64-bit 2018-10-27 15:12:33 / mkvmerge v28.1.0 ('Morning Child') 64-bit 2018-10-27 15:12:33 / UTC 2018-10-27T09:12:05Z
FromStats_BitRate           : 1499964
FromStats_Duration          : 01:27:12.000000000
FromStats_FrameCount        : 130800
FromStats_StreamSize        : 980976956
 
Audio
ID                          : 2
Format                      : E-AC-3
Format/Info                 : Enhanced Audio Coding 3
Codec ID                    : A_EAC3
Duration                    : 1 h 27 min
Bit rate mode               : Constant
Bit rate                    : 256 kb/s
Channel(s)                  : 6 channels
Channel positions           : Front: L C R, Side: L R, LFE
Sampling rate               : 48.0 kHz
Frame rate                  : 187.500 FPS (256 SPF)
Compression mode            : Lossy
Delay relative to video     : -21 ms
Stream size                 : 161 MiB (15%)
Title                       : Kazi zasto me ostavi (1993)
Language                    : Serbian
Service kind                : Complete Main
Default                     : Yes
Forced                      : No
Statistics Tags Issue       : mkvmerge v28.1.0 ('Morning Child') 64-bit 2018-10-27 15:12:33 / mkvmerge v28.1.0 ('Morning Child') 64-bit 2018-10-27 15:12:33 / UTC 2018-10-27T09:12:05Z
FromStats_BitRate           : 256000
FromStats_Duration          : 01:27:55.744000000
FromStats_FrameCount        : 164867
FromStats_StreamSize        : 168823808
 
epYscVA.png
Hidden Content
You'll be able to see the hidden content once you thank this post.
 
KWambp1.png
FvHYqMi.jpg


Thanked by 44 Members:
mackosopa , dusko51 , 303808909 , PaladinBL , dgema82 , rajka.bogda , runjaa , Bontonko , vajtaun , chefko , rafael13 , fritz200300 , danep , icaleptir , Milan1959 , Ismet1968 , duledudule , r2d2 , callipso , 011gogo , VaxBR , bojanastevica , kikambas , kockari , Prene , janaa , emotivac , masterlaky , tpotocnjak , zoran48 , dj1van , Franci , papak3333 , fffunkymannn , persifal2 , beograd1960' , Biotloneta , opetopet , ss_semi , Zelenac1 , lika , novicanovica , iceman_79 , Miki_Kiki_Riki

#3
Zoran_

Zoran_

    Gold Member

  • VIP
  • PipPipPipPipPipPip
  • 5,990 posts
  • 149790 thanks
Kazi zasto me ostavi (1993)
 
 
Kazizastomeostavi1993.png
 
Su6Ksi6.jpg
 

Please Login or Register to see this Hidden Content

 
Prica o mladom coveku koji dobije, 1991. godine poziv za vojnu vezbu i potom se nadje na vukovarskom frontu gde provede punih pet meseci. Vrativsi se sa fronta, mladic otkriva promene u sebi, ali i gradu u kome je ziveo. Potpuno izgubljen ne nalazi nacin da uspostavi kontakt sa okolinom, i kada se najmanje ocekuje desava mu se ljubav sa devojkom koja je prezivela sve strahote ovoga rata.
 
Kazizastomeostavi1993.avi.gif
 
Kazizastomeostavi1993.avi.jpg
 
Oets6ur.gif
 
Kazi zasto me ostavi (1993) DVDRip avi
 
SFYUbuP.jpg
 
Hidden Content
You'll be able to see the hidden content once you thank this post.

Molbe za moje linkove, šaljite na PP.

 

Zabranjeno je kopiranje mojih linkova,reupload i postavljanje na druge forume!


Thanked by 25 Members:
mackosopa , dusko51 , goransokolovic.fr , 303808909 , Dijana1974 , zel73 , milanalorica , Verdeja , rade.com , patuljakse , vajtaun , chefko , neddo , satserb , balkanmmb , 1zec , Jokso , John_Doe , zoran48 , kresomirovic , MP22 , Franci , kockari , Alamo74 , miki-maus23



0 user(s) are reading this topic

0 members, 0 guests, 0 anonymous users