Jump to content

Dobrodošli na Balkandownload.org
Tražite domaće knjige, exyu magazine, sinhronizirane crtane filmove, PC i ostale igre, strane i domaće filmove, dokumentarce, stranu i domaću muziku, itd. ? Ne morate tražiti dalje jer sve ćete to naći kod nas, uredno postavljeno i spremno za download. Osim toga registracijom možete sudjelovati u raznim postojećim temama na forumu, otvarati nove teme, sudjelovati u chatu i još mnogo toga. Ako već imaš otvoren račun, logiraj se ovde ,a ako želiš saznati zašto smo najbolji otvori novi račun i uverite se sami :)
Photo

Killing Season (2013)


  • Please log in to reply
2 replies to this topic

#1
Tobacco Road

Tobacco Road

    The Warez GOD

  • Tobacco
  • PipPipPipPipPipPipPipPipPipPip
  • 17,636 posts
  • 123995 thanks
  • Locationscrls

Killing Season (2013) HDRip XviD-AQOS

 

 

4dX6F.jpg

 

 

 

Please Login or Register to see this Hidden Content

 

 

Rezija: Mark Steven Johnson
Uloge: Robert De Niro, John Travolta, Milo Ventimiglia
 
 
Prica o dvojici veterana rata u Bosni, Srbinu i Amerikancu, cije ce neobicno prijateljstvo doci u pitanje kada se otkriju stvarne namere jednog od njih...
 
 
Velicina: 702 MB
Zanr: Action | Thriller
Video: AVi | 640 x 272 | 1082 kbps
Audio: English | MP3 | 128 kbps
 
 
Screen
 
baaz83rvl213l5u7ndj.jpg
 
 
 
Download

Please Login or Register to see this Hidden Content

 

 


Kako skinuti nesto sa Balkandownload-a?

 

 

http://www.slideshare.net/bd4yu/kako-skidati-fajlove-sa-balkan-download-a

 

 

Kako da pronadjete zeljeni sadrzaj na forumu? 

 

 

http://www.balkandownload.org/topic/40428-kako-pronaci-zeljeni-sadrzaj-na-forumu/

 

Najmračniji krugovi pakla su rezervisani za one koji u vremenima moralne krize ostanu neutralni i suzdržani -Dante Alighieri


#2
DoGgY

DoGgY

    Newbie

  • Members
  • Pip
  • 4 posts
  • 0 thanks

zanimljivoo...spominje se rat u BiH :D



#3
Tobacco Road

Tobacco Road

    The Warez GOD

  • Tobacco
  • PipPipPipPipPipPipPipPipPipPip
  • 17,636 posts
  • 123995 thanks
  • Locationscrls
Killing Season (2013) BDRiP ReadNfo AC3-5 1 XviD-AXED
 
 
or5p.jpg
 
 

Please Login or Register to see this Hidden Content

 
 
 

PLOT INFO:

Two veterans of the Bosnian War – one American, one Serbian – find their unlikely friendship turn tense with one of them reveals their true intentions.
Media Info:
General
Complete name                            : Killing.Season.2013.BDRiP.ReadNfo.AC3-5.1.XviD-AXED.avi
Format                                   : AVI
Format/Info                              : Audio Video Interleave
File size                                : 1.33 GiB
Duration                                 : 1h 30mn
Overall bit rate                         : 2 100 Kbps
Video
ID                                       : 0
Format                                   : MPEG-4 Visual
Format profile                           : Advanced [email protected]
Format settings, BVOP                    : 2
Format settings, QPel                    : No
Format settings, GMC                     : No warppoints
Format settings, Matrix                  : Default (H.263)
Muxing mode                              : Packed bitstream
Codec ID                                 : XVID
Codec ID/Hint                            : XviD
Duration                                 : 1h 30mn
Bit rate                                 : 1 453 Kbps
Width                                    : 720 pixels
Height                                   : 400 pixels
Display aspect ratio                     : 16:9
Frame rate                               : 23.976 fps
Color space                              : YUV
Chroma subsampling                       : 4:2:0
Bit depth                                : 8 bits
Scan type                                : Progressive
Compression mode                         : Lossy
Bits/(Pixel*Frame)                       : 0.210
Stream size                              : 943 MiB (69%)
Writing library                          : XviD 64
Audio
ID                                       : 1
Format                                   : AC-3
Format/Info                              : Audio Coding 3
Mode extension                           : CM (complete main)
Format settings, Endianness              : Big
Codec ID                                 : 2000
Duration                                 : 1h 30mn
Bit rate mode                            : Constant
Bit rate                                 : 640 Kbps
Channel(s)                               : 6 channels
Channel positions                        : Front: L C R, Side: L R, LFE
Sampling rate                            : 48.0 KHz
Bit depth                                : 16 bits
Compression mode                         : Lossy
Stream size                              : 415 MiB (30%)
Alignment                                : Aligned on interleaves
Interleave, duration                     : 64 ms (1.53 video frames)
Interleave, preload duration             : 192 ms
Title                                    : 3_2ch 48KHz 640Kbps DELAY 0ms
SOURCE: 
Retail RA Blu-Ray DISC
ReadNfo NOTES: 
According to imdb the film was shot in a 2.35:1 AR and the web-dl’s released a bit back were a 2.35:1 AR as well. For some reason the Retail RA Blu-Ray has a 1.78:1 AR and when compared to the web-dl it has a bit cut off of the left and right, but oddly enough it also has more on the top and bottom that was cropped out of the 2.35:1 AR version. This is from the Retail Region A blu-ray so all other releases are likely to be the same unless another region releases it in 2.35:1, but we felt it should be noted.
 
Screen
 
sert6uer4tkxwrftz0b.jpg
 
 
 
Download

Please Login or Register to see this Hidden Content


Kako skinuti nesto sa Balkandownload-a?

 

 

http://www.slideshare.net/bd4yu/kako-skidati-fajlove-sa-balkan-download-a

 

 

Kako da pronadjete zeljeni sadrzaj na forumu? 

 

 

http://www.balkandownload.org/topic/40428-kako-pronaci-zeljeni-sadrzaj-na-forumu/

 

Najmračniji krugovi pakla su rezervisani za one koji u vremenima moralne krize ostanu neutralni i suzdržani -Dante Alighieri





0 user(s) are reading this topic

0 members, 0 guests, 0 anonymous users