Jump to content

Dobrodošli na Balkandownload.org
Tražite domaće knjige, exyu magazine, sinhronizirane crtane filmove, PC i ostale igre, strane i domaće filmove, dokumentarce, stranu i domaću muziku, itd. ? Ne morate tražiti dalje jer sve ćete to naći kod nas, uredno postavljeno i spremno za download. Osim toga registracijom možete sudjelovati u raznim postojećim temama na forumu, otvarati nove teme, sudjelovati u chatu i još mnogo toga. Ako već imaš otvoren račun, logiraj se ovde ,a ako želiš saznati zašto smo najbolji otvori novi račun i uverite se sami :)
Photo

Justice League The Flashpoint Paradox 2013


  • Please log in to reply
No replies to this topic

#1
zenica

zenica

    Bronze Member

  • Banovan
  • PipPipPipPip
  • 1,277 posts
  • 111 thanks


Justice League The Flashpoint Paradox 2013 DVDRiP XviD AC3 – BiTo

35it.jpg

Source: DVDRETAIL
Sample: Yes
Chapters: no
Codec: XviD
Container: AVI
Audio: AC3 6CH @ English
*********************************
ID : 0
Format : MPEG-4 Visual
Format profile : Advanced [email protected]
Format settings, BVOP : 1
Format settings, QPel : No
Format settings, GMC : No warppoints
Format settings, Matrix : Default (MPEG)
Codec ID : XVID
Codec ID/Hint : XviD
Duration : 1h 29mn
Bit rate : 1 550 Kbps
Width : 720 pixels
Height : 400 pixels
Display aspect ratio : 16:9
Frame rate : 23.976 fps
Color space : YUV
Chroma subsampling : 4:2:0
Bit depth : 8 bits
Scan type : Progressive
Compression mode : Lossy
Bits/(Pixel*Frame) : 0.224
Stream size : 991 MiB (79%)
Writing library : XviD 1.2.1 (UTC 2008-12-04)
*********************************
ID : 1
Format : AC-3
Format/Info : Audio Coding 3
Mode extension : CM (complete main)
Format settings, Endianness : Big
Codec ID : 2000
Duration : 1h 21mn
Bit rate mode : Constant
Bit rate : 448 Kbps
Channel(s) : 6 channels
Channel positions : Front: L C R, Side: L R, LFE
Sampling rate : 48.0 KHz
Bit depth : 16 bits
Compression mode : Lossy
Stream size : 260 MiB (21%)
Alignment : Aligned on interleaves
Interleave, duration : 70 ms (1.69 video frames)
Interleave, preload duration : 192 ms
Title : VTS_01_1 T80 3_2ch 384Kbps DELAY 0ms_new



0fnl.png
txmj.png
r475.png
fi2f.png

Please Login or Register to see this Hidden Content




DOWNLOAD LINKS - All links are INTERCHANGEABLE

Please Login or Register to see this Hidden Content


Please Login or Register to see this Hidden Content


Please Login or Register to see this Hidden Content


Please Login or Register to see this Hidden Content


Please Login or Register to see this Hidden Content


Please Login or Register to see this Hidden Content


Please Login or Register to see this Hidden Content


Please Login or Register to see this Hidden Content


 
Twitter - @zenicaone
FB - Telly Showz




0 user(s) are reading this topic

0 members, 0 guests, 0 anonymous users