Jump to content

Dobrodošli na Balkandownload.org
Tražite domaće knjige, exyu magazine, sinhronizirane crtane filmove, PC i ostale igre, strane i domaće filmove, dokumentarce, stranu i domaću muziku, itd. ? Ne morate tražiti dalje jer sve ćete to naći kod nas, uredno postavljeno i spremno za download. Osim toga registracijom možete sudjelovati u raznim postojećim temama na forumu, otvarati nove teme, sudjelovati u chatu i još mnogo toga. Ako već imaš otvoren račun, logiraj se ovde ,a ako želiš saznati zašto smo najbolji otvori novi račun i uverite se sami :)
Photo

The Smurfs 2 (2013)


  • Please log in to reply
6 replies to this topic

#1
drsko

drsko

    Bronze Member

  • Banovan
  • PipPipPipPip
  • 1,332 posts
  • 1266 thanks

s9mourm76v3yd0vriyw2.jpg


Posted Image

Thanked by 1 Member:
Salihzenica

#2
Tobacco Road

Tobacco Road

    The Warez GOD

  • Tobacco
  • PipPipPipPipPipPipPipPipPipPip
  • 17,654 posts
  • 127864 thanks
  • Locationscrls

The Smurfs 2 (2013) TS XviD-TANGiNA

 

 

640-d10e5eb51c233f99a88a2e7a0167cece.jpg

 

General
Complete name                            : D:\The.Smurfs.2.2013.TS.XviD-TANGiNA
Format                                   : AVI
Format/Info                              : Audio Video Interleave
File size                                : 1 015 MiB
Duration                                 : 1h 34mn
Overall bit rate                         : 1 505 Kbps
Video
ID                                       : 0
Format                                   : MPEG-4 Visual
Format profile                           : Advanced [email protected]
Format settings, BVOP                    : 2
Format settings, QPel                    : No
Format settings, GMC                     : No warppoints
Format settings, Matrix                  : Default (H.263)
Codec ID                                 : XVID
Codec ID/Hint                            : XviD
Duration                                 : 1h 34mn
Bit rate                                 : 1 371 Kbps
Width                                    : 720 pixels
Height                                   : 304 pixels
Display aspect ratio                     : 2.35:1
Frame rate                               : 25.000 fps
Color space                              : YUV
Chroma subsampling                       : 4:2:0
Bit depth                                : 8 bits
Scan type                                : Progressive
Compression mode                         : Lossy
Bits/(Pixel*Frame)                       : 0.250
Stream size                              : 924 MiB (91%)
Writing library                          : XviD 1.2.1 (UTC 2008-12-04)
Audio
ID                                       : 1
Format                                   : MPEG Audio
Format version                           : Version 1
Format profile                           : Layer 3
Mode                                     : Joint stereo
Mode extension                           : MS Stereo
Codec ID                                 : 55
Codec ID/Hint                            : MP3
Duration                                 : 1h 34mn
Bit rate mode                            : Constant
Bit rate                                 : 128 Kbps
Channel(s)                               : 2 channels
Sampling rate                            : 44.1 KHz
Compression mode                         : Lossy
Stream size                              : 86.3 MiB (9%)
Alignment                                : Aligned on interleaves
Interleave, duration                     : 160 ms (4.00 video frames)
Interleave, preload duration             : 208 ms
Title                                    : smurfs test.avi_track_1_
Writing library                          : LAME3.99r
Encoding settings                        : -m j -V 4 -q 2 -lowpass 17 -b 128
 
 
Screen
 
euw5c2h12a4m2k9brmvl.jpg
 
 
 
Download
Hidden Content
You'll be able to see the hidden content once you thank this post.


Kako skinuti nesto sa Balkandownload-a?

 

 

http://www.slideshare.net/bd4yu/kako-skidati-fajlove-sa-balkan-download-a

 

 

Kako da pronadjete zeljeni sadrzaj na forumu? 

 

 

http://www.balkandownload.org/topic/40428-kako-pronaci-zeljeni-sadrzaj-na-forumu/

 

Najmračniji krugovi pakla su rezervisani za one koji u vremenima moralne krize ostanu neutralni i suzdržani -Dante Alighieri


Thanked by 1 Member:
Salihzenica

#3
drsko

drsko

    Bronze Member

  • Banovan
  • PipPipPipPip
  • 1,332 posts
  • 1266 thanks
Smurfs 2 2013 3D 720p HDTC x264 AC3 SmY

 

fwtc7s1xv8ohhsalivxf.jpeg

 

Please Login or Register to see this Hidden Content

 

Please Login or Register to see this Hidden Content

 

Please Login or Register to see this Hidden Content

 

 

wkg80vo97la6yuygxt.jpg


Posted Image

Thanked by 1 Member:
Salihzenica

#4
drsko

drsko

    Bronze Member

  • Banovan
  • PipPipPipPip
  • 1,332 posts
  • 1266 thanks

Smurfs 2 (2013) DvDScr x264 450MB-MKV+prevod!

 

 

 

 q9s8l909l41fax9kcj8.jpg

 

Please Login or Register to see this Hidden Content

39nf9urps5t6ryqvscay.jpg

 

Please Login or Register to see this Hidden Content

 

Prevod:

Please Login or Register to see this Hidden Content


Posted Image

Thanked by 1 Member:
Salihzenica

#5
ParnY

ParnY

    Bronze Member

  • Administrator
  • 1,496 posts
  • 6403 thanks
The Smurfs 2 (2013) HDRiP READNFO XViD - FANTA

o9d4.jpg

7a8518c2e1ad830844ce2524cfb14ae8.png

vagd.jpg






Download:

Single link:

Please Login or Register to see this Hidden Content

Please Login or Register to see this Hidden Content

Please Login or Register to see this Hidden Content

Please Login or Register to see this Hidden Content

Please Login or Register to see this Hidden Content


Edited by ParnY02, 08 October 2013 - 14:48.

>>> SeedBox & RDP slots | 350GB (SB) / 400GB (RDP) HDD | 1Gbps | Unmetered | 8€ (SB) / 10€ (RDP) per month <<<


#6
Tobacco Road

Tobacco Road

    The Warez GOD

  • Tobacco
  • PipPipPipPipPipPipPipPipPipPip
  • 17,654 posts
  • 127864 thanks
  • Locationscrls

The Smurfs 2 (2013) DVDRip X264-PLAYNOW

 

 

Screen

 

mzk4wkecu0gytq3vut4.jpg

 

 

 

Download

Hidden Content
You'll be able to see the hidden content once you thank this post.


Kako skinuti nesto sa Balkandownload-a?

 

 

http://www.slideshare.net/bd4yu/kako-skidati-fajlove-sa-balkan-download-a

 

 

Kako da pronadjete zeljeni sadrzaj na forumu? 

 

 

http://www.balkandownload.org/topic/40428-kako-pronaci-zeljeni-sadrzaj-na-forumu/

 

Najmračniji krugovi pakla su rezervisani za one koji u vremenima moralne krize ostanu neutralni i suzdržani -Dante Alighieri


Thanked by 1 Member:
Svetovidvid

#7
Tobacco Road

Tobacco Road

    The Warez GOD

  • Tobacco
  • PipPipPipPipPipPipPipPipPipPip
  • 17,654 posts
  • 127864 thanks
  • Locationscrls

The Smurfs 2 (2013) BDRip X264-SPARKS

 

 

KsKvF2Q.jpg

 

 

Please Login or Register to see this Hidden Content

 

 

Genre: Animation | Comedy | Family | Fantasy
IMDB Rating: 5.0/10 from 8,710 users Metascore: 34/100
Directed by: Raja Gosnell
Starring: Neil Patrick Harris, Jayma Mays, Katy Perry
 
Release Name: The.Smurfs.2.2013.BDRip.X264-SPARKS
Size: 1.04 GB
Video: MKV | 720×388
Audio: English | AAC LC 2ch
Runtime: 1h 44mn 54s
 
Download
Hidden Content
You'll be able to see the hidden content once you thank this post.


Kako skinuti nesto sa Balkandownload-a?

 

 

http://www.slideshare.net/bd4yu/kako-skidati-fajlove-sa-balkan-download-a

 

 

Kako da pronadjete zeljeni sadrzaj na forumu? 

 

 

http://www.balkandownload.org/topic/40428-kako-pronaci-zeljeni-sadrzaj-na-forumu/

 

Najmračniji krugovi pakla su rezervisani za one koji u vremenima moralne krize ostanu neutralni i suzdržani -Dante Alighieri


Thanked by 1 Member:
Svetovidvid



0 user(s) are reading this topic

0 members, 0 guests, 0 anonymous users