Jump to content

Dobrodošli na Balkandownload.org
Tražite domaće knjige, exyu magazine, sinhronizirane crtane filmove, PC i ostale igre, strane i domaće filmove, dokumentarce, stranu i domaću muziku, itd. ? Ne morate tražiti dalje jer sve ćete to naći kod nas, uredno postavljeno i spremno za download. Osim toga registracijom možete sudjelovati u raznim postojećim temama na forumu, otvarati nove teme, sudjelovati u chatu i još mnogo toga. Ako već imaš otvoren račun, logiraj se ovde ,a ako želiš saznati zašto smo najbolji otvori novi račun i uverite se sami :)
Photo

Sjećaš li se Dolly Bell? (1981)


4 replies to this topic

#1
MaliGrizeBeton

MaliGrizeBeton

    Silver Member

  • Members
  • PipPipPipPipPip
  • 2,524 posts
  • 22592 thanks
Sjećaš li se Dolly Bell? (1981)
 
uL3NkwN.png

Please Login or Register to see this Hidden Content

3aIYF0g.png
 
NdL1f5G.jpg

Naslov: Sjećaš li se Dolly Bell?
Godina: 1981
Žanr: drama, komedija, ljubavni
Trajanje: 110 min
Režija: Emir Kusturica
Scenario: Emir Kusturica, Abdulah Sidran
Uloge: Slavko Štimac, Ljiljana Blagojević, Slobodan Aligrudić, Mira Banjac, Nada Pani, Živko 'Žika' Ristić, Boro Stjepanović, Pavle Vuisić, Mirsad Zulić.. 
 
Opis: Sjećaš li se Doli Bel je prvi igrani film koji je režirao Emir Kusturica. Snimljen je 1981. godine, a scenario je napisao Abdulah Sidran.
 
Ovaj film se često uzima kao početak nove bosanske škole filma, koja je predstavljala fantastičnu simbiozu italijanskog nadrealizma Federika Felinija i visokoprofesionalnih iskustava praške akademije za film i televiziju, a koja je završila filmovima Kuduz i Praznik u Sarajevu početkom devedesetih godina prošlog veka. Ostala je upamćena rečenica iz filma: „Svakoga dana u svakom pogledu sve više napredujem“.
 
Radnja filma odvija se tokom leta 1963 (zemljotres u Skoplju) u Sarajevu. Glavni lik, dečak Dino, spoznaje svet i odrasta uz filmove koje gleda u lokalnom bioskopu i muziku koju sluša u omladinskom centru (između ostalih i 24 Mila Baci Adrijana Ćelentana), i doživljava svoju prvu ljubav zaljubljujući se u prostitutku Doli Bel koju, po zahtevu njenog makroa, treba da sakrije..
 


Thanked by 40 Members:
xenocid , MaliIgicGregor , slomljenakrila , 710pa , voje , mzokitpm , anonim007 , kormi17 , kulin ban , torero , Zelenac1 , dragansamardzic , alenko85 , Bontonko , pablo serr , Semikona , chicio , mmarkovic11 , vajtaun , BAKI69 , sismis78 , polipatrid , Charlliemiladin , rina123 , emes , has , sarajevo79 , Ljubo1957 , nektar22 , amiga500emulator , gemba , enigmaforce , banestefanovic , salomon , Sorlando , MySelf.2001 , inpendrum , tinematic16 , Marko1997 , Pebell08

#2
Zoran_

Zoran_

    Gold Member

  • VIP
  • PipPipPipPipPipPip
  • 5,984 posts
  • 149352 thanks
Sjecas li se Dolly Bell (1981)
 
 
7ydmUrQ.png
 
Su6Ksi6.jpg
 

Please Login or Register to see this Hidden Content

 
Debitantski film Emira Kusturice. Zlatni Lav u Veneciji 1981. godine! Mladic odrasta u Sarajevu tokom 1960-tih, u senci svog dobrog, ali bolesljivog oca, gde biva privucen svetom malih kriminalaca. Oni ga angazuju da sakrije mladu prostitutku i on se zaljubljuje u nju.
 
kffrcvuga0r.png
 
UzdsXVI.gif
 
I6dqjDp.jpg
 
Oets6ur.gif
 
Sjecas li se Dolly Bell (1981) DVDRip.x264.mkv
 
SFYUbuP.jpg
 
Hidden Content
You'll be able to see the hidden content once you thank this post.

Molbe za moje linkove, šaljite na PP.

 

Zabranjeno je kopiranje mojih linkova,reupload i postavljanje na druge forume!


Thanked by 102 Members:

#3
Manda94

Manda94

    Bronze Member

  • Moderator
  • PipPipPipPip
  • 1,176 posts
  • 60499 thanks
Sjećaš li se Dolly Bell (1981) REMASTERED 720p HDTV x264 - pOp
 
I0uEAHP.png
 
oD2CgM0.jpg
 
5oZJQIn.png
 
Hidden Content
You'll be able to see the hidden content once you thank this post.

U životu nisu bitne osobe koje vam požele sreću, nego one koje vas čine srećnima.

Thanked by 101 Members:

#4
nikolakralj100

nikolakralj100

    Advanced Member

  • Members
  • PipPipPip
  • 346 posts
  • 20542 thanks

Sjecas li se Dolly Bell? (1981) - Restaurirana verzija 1080p

 

UybCXR7.png

 

 

Radnja filma odvija se tokom jednog leta šezdesetih godina dvadesetog veka u Sarajevu. Glavni lik je dečak Dino koji spoznaje svet gledajući filmove u lokalnom bioskopu i slušajući muziku u omladinskom centru. On  doživljava svoju prvu ljubav zaljubljujući se u prostitutku Doli Bel  koju, po zahtevu njenog makroa, treba sakriti.

 

 

*Blurovan TV logo*

 

YoPNEjT.jpg

 

Hidden Content
You'll be able to see the hidden content once you thank this post.


Thanked by 76 Members:

#5
Wolf 13

Wolf 13

    Advanced Member

  • Members
  • PipPipPip
  • 426 posts
  • 33457 thanks
Sjecas li se, Dolly Bell (1981) 720p Remastered HDRip DD5.1 x264 by Wolf
(MKV) HQ
 
aLwvnIm.jpg
 

Please Login or Register to see this Hidden Content

 

General
Unique ID                   : 35648566187022659781026886563840372179 (0x1AD1AA0312F28DC8E175B8F486E3ADD3)
Complete name               : Sjecas li se, Dolly Bell (1981) 720p Remastered HDRip DD5.1 x264 by Wolf.mkv
Format                      : Matroska
Format version              : Version 4
File size                   : 1.36 GiB
Duration                    : 1 h 45 min
Overall bit rate            : 1 858 kb/s
Encoded date                : UTC 2019-10-23 15:37:02
Writing application         : mkvmerge v38.0.0 ('The Silent Type') 64-bit
Writing library             : libebml v1.3.9 + libmatroska v1.5.2
 
Video
ID                          : 1
Format                      : AVC
Format/Info                 : Advanced Video Codec
Format profile              : [email protected]
Format settings             : CABAC / 16 Ref Frames
Format settings, CABAC      : Yes
Format settings, Reference  : 16 frames
Codec ID                    : V_MPEG4/ISO/AVC
Duration                    : 1 h 45 min
Bit rate                    : 1 600 kb/s
Width                       : 1 280 pixels
Height                      : 720 pixels
Display aspect ratio        : 16:9
Frame rate mode             : Constant
Frame rate                  : 30.000 FPS
Color space                 : YUV
Chroma subsampling          : 4:2:0
Bit depth                   : 8 bits
Scan type                   : Progressive
Bits/(Pixel*Frame)          : 0.058
Stream size                 : 1.17 GiB (86%)
Title                       : Sjecas li se, Dolly Bell (1981)
Writing library             : x264 core 157 r2935 545de2f
Encoding settings           : cabac=1 / ref=16 / deblock=1:-1:-1 / analyse=0x3:0x133 / me=umh / subme=10 / psy=1 / psy_rd=1.00:0.15 / mixed_ref=1 / me_range=24 / chroma_me=1 / trellis=2 / 8x8dct=1 / cqm=0 / deadzone=21,11 / fast_pskip=1 / chroma_qp_offset=-3 / threads=6 / lookahead_threads=1 / sliced_threads=0 / nr=0 / decimate=1 / interlaced=0 / bluray_compat=0 / constrained_intra=0 / bframes=8 / b_pyramid=2 / b_adapt=2 / b_bias=0 / direct=3 / weightb=1 / open_gop=0 / weightp=2 / keyint=300 / keyint_min=30 / scenecut=40 / intra_refresh=0 / rc_lookahead=60 / rc=2pass / mbtree=1 / bitrate=1600 / ratetol=1.0 / qcomp=0.60 / qpmin=0 / qpmax=69 / qpstep=4 / cplxblur=20.0 / qblur=0.5 / vbv_maxrate=300000 / vbv_bufsize=300000 / nal_hrd=none / filler=0 / ip_ratio=1.40 / aq=1:1.00
Language                    : Serbian
Default                     : Yes
Forced                      : No
Color range                 : Limited
Color primaries             : BT.709
Transfer characteristics    : BT.709
Matrix coefficients         : BT.709
 
Audio
ID                          : 2
Format                      : E-AC-3
Format/Info                 : Enhanced AC-3
Commercial name             : Dolby Digital Plus
Codec ID                    : A_EAC3
Duration                    : 1 h 45 min
Bit rate mode               : Constant
Bit rate                    : 256 kb/s
Channel(s)                  : 6 channels
Channel layout              : L R C LFE Ls Rs
Sampling rate               : 48.0 kHz
Frame rate                  : 31.250 FPS (1536 SPF)
Compression mode            : Lossy
Stream size                 : 192 MiB (14%)
Title                       : Sjecas li se, Dolly Bell (1981)
Language                    : Serbian
Service kind                : Complete Main
Default                     : Yes
Forced                      : No
 
epYscVA.png
Hidden Content
You'll be able to see the hidden content once you thank this post.
zbNKcak.jpg
Hidden Content
You'll be able to see the hidden content once you thank this post.
 
kN1GoPy.png
TVeiGki.jpg


Thanked by 37 Members:
abalinda , kockari , jaganjac , lenabgyu , zljaka , mikula11 , goraneo , papak3333 , macessatt , retar , popesku , SaleXieri , Tokyoscope , blauer , Lejz , darks , rusko , Pera34 , bnjistor , mirko_cilicax , myschko13 , MaliIgicGregor , bubimiri , ss_semi , miki99 , alando9 , stankokljajic , polo804 , daco99 , dadodadic , asceric , beograd1960' , alexxxxa , fritz200300 , dzimislav leone , senilni , lovaccc



0 user(s) are reading this topic

0 members, 0 guests, 0 anonymous users