Jump to content

Dobrodošli na Balkandownload.org
Tražite domaće knjige, exyu magazine, sinhronizirane crtane filmove, PC i ostale igre, strane i domaće filmove, dokumentarce, stranu i domaću muziku, itd. ? Ne morate tražiti dalje jer sve ćete to naći kod nas, uredno postavljeno i spremno za download. Osim toga registracijom možete sudjelovati u raznim postojećim temama na forumu, otvarati nove teme, sudjelovati u chatu i još mnogo toga. Ako već imaš otvoren račun, logiraj se ovde ,a ako želiš saznati zašto smo najbolji otvori novi račun i uverite se sami :)

Krugovi (2013)


4 replies to this topic

#1
Guest_**offline**_*

Guest_**offline**_*
  • Guests
  • thanks
Krugovi (2013)


Thanked by 112 Members:

#2
Wolf 13

Wolf 13

    Advanced Member

  • Members
  • PipPipPip
  • 426 posts
  • 33627 thanks
Krugovi (2013) DVDrip AC3 5.1 x264 by Wolf
(MKV) HQ
 
YvXaJSF.jpg
 

Please Login or Register to see this Hidden Content

 

General
Unique ID                   : 189353308234549449054267335939586543493 (0x8E741EE23F7CDF626509FD44FD784F85)
Complete name               : C:\Users\WOLF 13\Downloads\Krugovi (2013) DVDrip AC3 5.1 x264 by Wolf\Krugovi (2013) DVDrip AC3 5.1 x264 by Wolf.mkv
Format                      : Matroska
Format version              : Version 4 / Version 2
File size                   : 1.32 GiB
Duration                    : 1 h 47 min
Overall bit rate            : 1 758 kb/s
Encoded date                : UTC 2018-12-13 19:57:15 / UTC 2018-12-13T16:50:45Z
Writing application         : mkvmerge v29.0.0 ('Like It Or Not') 64-bit
Writing library             : libebml v1.3.6 + libmatroska v1.4.9 / Lavf57.7.2
 
Video
ID                          : 1
Format                      : AVC
Format/Info                 : Advanced Video Codec
Format profile              : [email protected]
Format settings             : CABAC / 8 Ref Frames
Format settings, CABAC      : Yes
Format settings, ReFrames   : 8 frames
Codec ID                    : V_MPEG4/ISO/AVC
Duration                    : 1 h 47 min
Bit rate                    : 1 500 kb/s
Width                       : 720 pixels
Height                      : 568 pixels
Display aspect ratio        : 16:9
Frame rate mode             : Constant
Frame rate                  : 25.000 FPS
Color space                 : YUV
Chroma subsampling          : 4:2:0
Bit depth                   : 8 bits
Scan type                   : Progressive
Bits/(Pixel*Frame)          : 0.147
Stream size                 : 1.11 GiB (83%)
Title                       : Krugovi (2013)
Writing library             : x264 core 155 r2901 7d0ff22
Encoding settings           : cabac=1 / ref=8 / deblock=1:-1:-1 / analyse=0x3:0x133 / me=umh / subme=9 / psy=1 / psy_rd=1.00:0.15 / mixed_ref=1 / me_range=16 / chroma_me=1 / trellis=2 / 8x8dct=1 / cqm=0 / deadzone=21,11 / fast_pskip=1 / chroma_qp_offset=-3 / threads=6 / lookahead_threads=1 / sliced_threads=0 / nr=0 / decimate=1 / interlaced=0 / bluray_compat=0 / constrained_intra=0 / bframes=3 / b_pyramid=2 / b_adapt=2 / b_bias=0 / direct=3 / weightb=1 / open_gop=0 / weightp=2 / keyint=250 / keyint_min=25 / scenecut=40 / intra_refresh=0 / rc_lookahead=60 / rc=2pass / mbtree=1 / bitrate=1500 / ratetol=1.0 / qcomp=0.60 / qpmin=0 / qpmax=69 / qpstep=4 / cplxblur=20.0 / qblur=0.5 / vbv_maxrate=300000 / vbv_bufsize=300000 / nal_hrd=none / filler=0 / ip_ratio=1.40 / aq=1:1.00
Language                    : Serbian
Default                     : Yes
Forced                      : No
Color range                 : Limited
Color primaries             : BT.601 PAL
Transfer characteristics    : BT.709
Matrix coefficients         : BT.601
Statistics Tags Issue       : mkvmerge v29.0.0 ('Like It Or Not') 64-bit 2018-12-13 19:57:15 / mkvmerge v29.0.0 ('Like It Or Not') 64-bit 2018-12-13 19:57:15 / UTC 2018-12-13T16:50:45Z
FromStats_BitRate           : 1499831
FromStats_Duration          : 01:47:54.440000000
FromStats_FrameCount        : 161861
FromStats_StreamSize        : 1213821293
 
Audio
ID                          : 2
Format                      : AC-3
Format/Info                 : Audio Coding 3
Codec ID                    : A_AC3
Duration                    : 1 h 47 min
Bit rate mode               : Constant
Bit rate                    : 256 kb/s
Channel(s)                  : 6 channels
Channel positions           : Front: L C R, Side: L R, LFE
Sampling rate               : 48.0 kHz
Frame rate                  : 31.250 FPS (1536 SPF)
Bit depth                   : 16 bits
Compression mode            : Lossy
Delay relative to video     : -80 ms
Stream size                 : 198 MiB (15%)
Title                       : Krugovi (2013)
Language                    : Serbian
Service kind                : Complete Main
Default                     : Yes
Forced                      : No
Statistics Tags Issue       : mkvmerge v29.0.0 ('Like It Or Not') 64-bit 2018-12-13 19:57:15 / mkvmerge v29.0.0 ('Like It Or Not') 64-bit 2018-12-13 19:57:15 / UTC 2018-12-13T16:50:45Z
FromStats_BitRate           : 256000
FromStats_Duration          : 01:47:54.400000000
FromStats_FrameCount        : 202325
FromStats_StreamSize        : 207180800
 
Text
ID                          : 3
Format                      : UTF-8
Codec ID                    : S_TEXT/UTF8
Codec ID/Info               : UTF-8 Plain Text
Title                       : KRUGOVI
Language                    : Serbian
Default                     : Yes
Forced                      : No
Statistics Tags Issue       : mkvmerge v29.0.0 ('Like It Or Not') 64-bit 2018-12-13 19:57:15 / mkvmerge v29.0.0 ('Like It Or Not') 64-bit 2018-12-13 19:57:15 / UTC 2018-12-13T16:50:45Z
FromStats_BitRate           : 4
FromStats_Duration          : 00:54:13.313000000
FromStats_FrameCount        : 68
FromStats_StreamSize        : 1649
 
epYscVA.png
Hidden Content
You'll be able to see the hidden content once you thank this post.
 
8jmfyGY.png
erDqSvq.jpg

Edited by Wolf 13, 14 December 2018 - 14:02.


Thanked by 112 Members:

#3
nikolakralj100

nikolakralj100

    Advanced Member

  • Members
  • PipPipPip
  • 346 posts
  • 20652 thanks

DVDr

 

q0HfmE3.jpg

 

pcnw6p2.jpg

 

Hidden Content
You'll be able to see the hidden content once you thank this post.


Thanked by 64 Members:
Pinokijo , Daki15 , milenica91 , balkanmmb , holebl1 , bojanakv , WoodooSale , rile1972 , klingon7 , ABoriganal , MeHIg0r , pedjatop , miki989miki , daniveka , MaliIgicGregor , aggressorss , draganiuss , Wolf 13 , xnoz25 , rafael13 , milenalenalana , satserb , BJH90 , keops87 , arsasrarsa , slavke , tarinka , idusko , leonbagaric150 , nn007 , stevomne , reno4kule , SaleXieri , dreidolin , Zelenac1 , senilni , pina , dhorvat08 , dejanmartinov , danijeladanijel , bloodhound , radionica1 , piratnadpiratima , Nebojsa1985 , Urosito , blekstena , sf_ferrari , burgo , stankokljajic20 , Bjarnar , peroit , MomirD , MarkoM999 , butterfly__ , serpico , draganadragana2010 , Milan Fix , mentor.q , Marko_0815 , brankoz13 , n00b masster , mikula11 , caki1980 , tole321

#4
Biotloneta

Biotloneta

    Bronze Member

  • Moderator
  • PipPipPipPip
  • 1,409 posts
  • 66185 thanks
  • LocationRobija

                                               Krugovi - 2013 TVRip-pOp
 

                                       MV5BMjYxZmMxMjYtNzI1YS00NDRkLThiNmUtZDhj

Please Login or Register to see this Hidden Content

 

Tri paralelene priče odvijaju se u Beogradu, Nemačkoj i Trebinju danas, prateći likove koji su kao svedoci događaja iz prošlosti, motivisani da donose odluke koje će im promeniti živote. Nebojša, svedok događaja u kom je stradao njegov najbolji prijatelj, prevazilazi grižu savesti suočavajući se sa ubicom svoga prijatelja, Haris, koji život duguje junaku koji se žrtvovao za njega, dug vraća rizikujući sve i pomažući ugroženoj ženi, dok sin jednog od ubica u susretu sa ocem stradalog heroja otvara put za prevazilaženje tragične prošlosti.

 
Uloge:
Aleksandar Berček Ranko
Leon Lučev Haris
Nebojša Glogovac Nebojša
Nikola Rakočević Bogdan
Hristina Popović Nada
Boris Isaković Todor
Vuk Kostić Marko
Marko Janketić Petar
Jasna Đuričić Danka
Emir Hadžihafizbegović Esad
Radoje Čupić Vozač kombija
Dejan Čukić Nadin muž
 
Režija: Srdan Golubović
 
Žanr: Antiratna melodrama

BUTj7Wj.pngu5VwBmv.jpg



Hidden Content
You'll be able to see the hidden content once you thank this post.

  tumblr_o89ik1YZEl1ssbvp5o1_500.gif

 

Za repload mrtvih linkova (domaćih filmova) ili želje za postavljanjem nekog filma kog ne možete da pronađete, obratite mi se putem privatne poruke.


Thanked by 39 Members:
Looper321 , crobot , Prospector , pulser , goghh , Daki15 , milenica91 , rakalica , holebl1 , rile1972 , WoodooSale , MeHIg0r , pedjatop , miki989miki , daniveka , MaliIgicGregor , draganiuss , liquid , xnoz25 , satserb , ArtWare , keops87 , vanja_ , tarinka , idusko , leonbagaric150 , mercury99 , stevomne , tole321 , danep , dreidolin , Urosito , andra petak , dragica , retar , pina , dhorvat08 , alando9 , Miki_Kiki_Riki

#5
Zoran_

Zoran_

    Gold Member

  • VIP
  • PipPipPipPipPipPip
  • 5,992 posts
  • 149871 thanks
Krugovi (2013)
 
 
Krugovi2013.png
 
Su6Ksi6.jpg
 

Please Login or Register to see this Hidden Content

 
Tri paralelne priče odvijaju se u Beogradu, Nemačkoj i Trebinju danas prateći likove koji su, kao svedoci događaja iz prošlosti, motivisani da donose odluke koje će im promeniti živote. Nebojša, svedok događaja u kom je stradao njegov najbolji prijatelj, prevazilazi grižu savesti suočavajući se sa ubicom svog prijatelja; Haris, koji život duguje junaku koji se žrtvovao za njega, dug vraća rizikujući sve i pomažući ugroženoj ženi; a sin jednog od ubica u susretu sa ocem stradalog heroja otvara put za prevazilaženje tragične prošlosti.
 
Krugovi2013.avi.gif
 
Krugovi2013.avi.jpg
 
Oets6ur.gif
 
Krugovi (2013) DVDRip avi
 
SFYUbuP.jpg
 
Hidden Content
You'll be able to see the hidden content once you thank this post.

Molbe za moje linkove, šaljite na PP.

 

Zabranjeno je kopiranje mojih linkova,reupload i postavljanje na druge forume!


Thanked by 38 Members:
Pinokijo , Looper321 , goransokolovic.fr , Jorgos , baronrajo , LordKG , goghh , Daki15 , Verdeja , Ilijaax , rakalica , holebl1 , WoodooSale , pulser , kanki , draganiuss , sloznabraca , kormi17 , machiave11i , kingofcool , pedjatop , BlacksmithJSZ , daniveka , MaliIgicGregor , mirko_cilicax , aggressorss , Zorrran , Homss , damirprc , Jokso , AccccO , beograd1960' , ves604 , Miki_Kiki_Riki , retar , miki-maus23 , zoran48 , Milfir



0 user(s) are reading this topic

0 members, 0 guests, 0 anonymous users