Jump to content

Dobrodošli na Balkandownload.org
Tražite domaće knjige, exyu magazine, sinhronizirane crtane filmove, PC i ostale igre, strane i domaće filmove, dokumentarce, stranu i domaću muziku, itd. ? Ne morate tražiti dalje jer sve ćete to naći kod nas, uredno postavljeno i spremno za download. Osim toga registracijom možete sudjelovati u raznim postojećim temama na forumu, otvarati nove teme, sudjelovati u chatu i još mnogo toga. Ako već imaš otvoren račun, logiraj se ovde ,a ako želiš saznati zašto smo najbolji otvori novi račun i uverite se sami :)
Photo

Stalled (2013)


  • Please log in to reply
2 replies to this topic

#1
Tobacco Road

Tobacco Road

    The Warez GOD

  • Tobacco
  • PipPipPipPipPipPipPipPipPipPip
  • 17,626 posts
  • 121723 thanks
  • Locationscrls

Stalled (2013) HDRip XviD-AQOS

 

 

Lquze.jpg

 

 

Please Login or Register to see this Hidden Content

 

 

Rezija: Christian James
Uloge: Dan Palmer, Antonia Bernath, Tamaryn Payne
 
Domar biva zarobljen u zenskom toaletu tokom invazije zombija.
 
 
Izvor: HD
Velicina: 745 MB
Zanr: Comedy | Horror
Video: XviD, 640 x 352 at 1231kb/s
Audio: English, MP3 at 128khz
 
Screen
 
3ejxai3k77wyi5cbx7.jpg
 
 
 
BxuWy.jpg
 
TpQF7.jpg
 
 
 
Download
Hidden Content
You'll be able to see the hidden content once you thank this post.

 


Kako skinuti nesto sa Balkandownload-a?

 

 

http://www.slideshare.net/bd4yu/kako-skidati-fajlove-sa-balkan-download-a

 

 

Kako da pronadjete zeljeni sadrzaj na forumu? 

 

 

http://www.balkandownload.org/topic/40428-kako-pronaci-zeljeni-sadrzaj-na-forumu/

 

Najmračniji krugovi pakla su rezervisani za one koji u vremenima moralne krize ostanu neutralni i suzdržani -Dante Alighieri


#2
MaliGrizeBeton

MaliGrizeBeton

    Silver Member

  • Members
  • PipPipPipPipPip
  • 2,524 posts
  • 3851 thanks

Stalled (2013)  

HDRip XviD-AQOS
 
image.png
 
image.jpg
image.jpg
 
 [info]

Please Login or Register to see this Hidden Content

 
 [download]
Hidden Content
You'll be able to see the hidden content once you thank this post.



#3
Madball

Madball

    Bronze Member

  • Members
  • PipPipPipPip
  • 2,008 posts
  • 4152 thanks

Stalled (2013) BRRip XviD MP3-RARBG

stalled.jpg

Please Login or Register to see this Hidden Content



Info:
Format                                   : AVI
Format/Info                              : Audio Video Interleave
File size                                : 742 MiB
Duration                                 : 1h 24mn
Overall bit rate                         : 1 227 Kbps
Writing application                      : Lavf55.22.103

Video
ID                                       : 0
Format                                   : xvid
Codec ID                                 : xvid
Duration                                 : 1h 24mn
Bit rate                                 : 959 Kbps
Width                                    : 720 pixels
Height                                   : 405 pixels
Display aspect ratio                     : 16:9
Frame rate                               : 23.976 fps
Bits/(Pixel*Frame)                       : 0.137
Stream size                              : 579 MiB (78%)

Audio
ID                                       : 1
Format                                   : MPEG Audio
Format version                           : Version 1
Format profile                           : Layer 3
Mode                                     : Joint stereo
Mode extension                           : MS Stereo
Codec ID                                 : 55
Codec ID/Hint                            : MP3
Duration                                 : 1h 24mn
Bit rate mode                            : Constant
Bit rate                                 : 256 Kbps
Channel(s)                               : 2 channels
Sampling rate                            : 48.0 KHz
Compression mode                         : Lossy
Stream size                              : 155 MiB (21%)
Alignment                                : Aligned on interleaves
Interleave, duration                     : 24 ms (0.58 video frame)
Writing library                          : LAME3.99.5



stoled3.jpg
stoled1.jpg
stoled2.jpg

Hidden Content
You'll be able to see the hidden content once you thank this post.

image.gif





0 user(s) are reading this topic

0 members, 0 guests, 0 anonymous users