Jump to content

Dobrodošli na Balkandownload.org
Tražite domaće knjige, exyu magazine, sinhronizirane crtane filmove, PC i ostale igre, strane i domaće filmove, dokumentarce, stranu i domaću muziku, itd. ? Ne morate tražiti dalje jer sve ćete to naći kod nas, uredno postavljeno i spremno za download. Osim toga registracijom možete sudjelovati u raznim postojećim temama na forumu, otvarati nove teme, sudjelovati u chatu i još mnogo toga. Ako već imaš otvoren račun, logiraj se ovde ,a ako želiš saznati zašto smo najbolji otvori novi račun i uverite se sami :)
Photo

Partizanska eskadrila (1979)


3 replies to this topic

#1
MaliGrizeBeton

MaliGrizeBeton

    Silver Member

  • Members
  • PipPipPipPipPip
  • 2,524 posts
  • 22581 thanks

Partizanska eskadrila (1979)

 
 

 



Thanked by 67 Members:
hunters , velja_nevoljaaa , tushma , veskobosna , blub9999 , salgija , JadraN12 , host , cela026 , Stefi_1997 , danijeladanijel , JaJelena , uranus46 , CoBJeT , zmaj007 , turki77 , lovro stepanić , saba85 , Supergoofy , mikula11 , Zelenac1 , spekiluk , zeljkom , Seki44 , voipns , dijana95 , prdac1234 , Cr0W , Dimitrije Jankovski , kresomirovic , Aquavald , retype12345 , freelancerBIH , mikihv , gringo74 , obeliksmk , mirdulenis , H_Milka , filgamus13 , nenad72yu , Cvrle , mustafa_50 , dranki dak , kartonaza , gogaduki , csibileca , slobapank , mlllca , uljarica , spunjecikidanke , oblio , joka2712 , zorandju , schmitzzzz , mirko_cilicax , chefko , CRO.max.w , ivek2 , kolani011 , Ivan2010 , panda2 , kordunovac , nesaBB , zokafesb , slobodanradi , cvijetic , masboi

#2
Wolf 13

Wolf 13

    Advanced Member

  • Members
  • PipPipPip
  • 426 posts
  • 33401 thanks
Partizanska eskadrila (1979) Ktv Remastered E-AC3 x264 by Wolf
(MKV)
 
dx1LZIe.jpg
 

Please Login or Register to see this Hidden Content

 

General
Unique ID                   : 17573911841210986039974252673725085162 (0xD389CC00DA5CF52D40ABC2F0957B5EA)
Complete name               : Partizanska eskadrila (1979) Ktv Remastered E-AC3 x264 by Wolf.mkv
Format                      : Matroska
Format version              : Version 4 / Version 2
File size                   : 1.52 GiB
Duration                    : 2 h 3 min
Overall bit rate            : 1 758 kb/s
Encoded date                : UTC 2018-08-30 21:06:57 / UTC 2018-08-30T17:30:25Z
Writing application         : mkvmerge v26.0.0 ('In The Game') 64-bit
Writing library             : libebml v1.3.6 + libmatroska v1.4.9 / Lavf57.7.2
 
Video
ID                          : 1
Format                      : AVC
Format/Info                 : Advanced Video Codec
Format profile              : High [email protected]
Format settings             : CABAC / 5 Ref Frames
Format settings, CABAC      : Yes
Format settings, ReFrames   : 5 frames
Codec ID                    : V_MPEG4/ISO/AVC
Duration                    : 2 h 3 min
Bit rate                    : 1 500 kb/s
Width                       : 720 pixels
Height                      : 400 pixels
Display aspect ratio        : 16:9
Frame rate mode             : Constant
Frame rate                  : 25.000 FPS
Color space                 : YUV
Chroma subsampling          : 4:2:0
Bit depth                   : 10 bits
Scan type                   : Progressive
Bits/(Pixel*Frame)          : 0.208
Stream size                 : 1.27 GiB (83%)
Title                       : Partizanska eskadrila (1979)
Writing library             : x264 core 155 r2901 7d0ff22
Encoding settings           : cabac=1 / ref=5 / deblock=1:-1:-1 / analyse=0x3:0x113 / me=hex / subme=8 / psy=1 / psy_rd=1.00:0.15 / mixed_ref=1 / me_range=16 / chroma_me=1 / trellis=2 / 8x8dct=1 / cqm=0 / deadzone=21,11 / fast_pskip=1 / chroma_qp_offset=-3 / threads=6 / lookahead_threads=1 / sliced_threads=0 / nr=0 / decimate=1 / interlaced=0 / bluray_compat=0 / constrained_intra=0 / bframes=3 / b_pyramid=2 / b_adapt=1 / b_bias=0 / direct=3 / weightb=1 / open_gop=0 / weightp=2 / keyint=250 / keyint_min=25 / scenecut=40 / intra_refresh=0 / rc_lookahead=50 / rc=2pass / mbtree=1 / bitrate=1500 / ratetol=1.0 / qcomp=0.60 / qpmin=0 / qpmax=81 / qpstep=4 / cplxblur=20.0 / qblur=0.5 / vbv_maxrate=150000 / vbv_bufsize=187500 / nal_hrd=none / filler=0 / ip_ratio=1.40 / aq=1:1.00
Language                    : Serbian
Default                     : Yes
Forced                      : No
Color range                 : Limited
Color primaries             : BT.601 PAL
Transfer characteristics    : BT.709
Matrix coefficients         : BT.601
Statistics Tags Issue       : mkvmerge v26.0.0 ('In The Game') 64-bit 2018-08-30 21:06:57 / mkvmerge v26.0.0 ('In The Game') 64-bit 2018-08-30 21:06:57 / UTC 2018-08-30T17:30:25Z
FromStats_BitRate           : 1499940
FromStats_Duration          : 02:03:50.040000000
FromStats_FrameCount        : 185751
FromStats_StreamSize        : 1393076842
 
Audio
ID                          : 2
Format                      : E-AC-3
Format/Info                 : Enhanced Audio Coding 3
Codec ID                    : A_EAC3
Duration                    : 2 h 3 min
Bit rate mode               : Constant
Bit rate                    : 256 kb/s
Channel(s)                  : 6 channels
Channel positions           : Front: L C R, Side: L R, LFE
Sampling rate               : 48.0 kHz
Frame rate                  : 187.500 FPS (256 SPF)
Compression mode            : Lossy
Delay relative to video     : -21 ms
Stream size                 : 227 MiB (15%)
Title                       : Partizanska eskadrila (1979)
Language                    : Serbian
Service kind                : Complete Main
Default                     : Yes
Forced                      : No
Statistics Tags Issue       : mkvmerge v26.0.0 ('In The Game') 64-bit 2018-08-30 21:06:57 / mkvmerge v26.0.0 ('In The Game') 64-bit 2018-08-30 21:06:57 / UTC 2018-08-30T17:30:25Z
FromStats_BitRate           : 256000
FromStats_Duration          : 02:03:50.016000000
FromStats_FrameCount        : 232188
FromStats_StreamSize        : 237760512
 
k2aTdzy.png
Hidden Content
You'll be able to see the hidden content once you thank this post.
 
Yuykpxb.png
WJIq30J.jpg


Thanked by 98 Members:

#3
Zoran_

Zoran_

    Gold Member

  • VIP
  • PipPipPipPipPipPip
  • 5,984 posts
  • 149250 thanks
Partizanska eskadrila (1979)
 
 
9k7hmyV.png
 
Su6Ksi6.jpg
 

Please Login or Register to see this Hidden Content

 
U proljeće 1942. godine, je nemačko vazduhoplovstvo imalo potpunu prevlast, ne samo na nebu Jugoslavije, nego i skoro nad celom Evropom. Partizani su u to vreme imali avione koje su kao i ostalo oružje otimali od neprijatelja. Ovo je film o stvaranju partizanske avijacije i njenim prvim borbama.
 
ezh4mti4wyq.png
 
ctnAZCK.gif
 
p2WuWlD.jpg
 
Oets6ur.gif
 
Partizanska eskadrila (1979) REMASTERED HDTVRip.x264.mkv 
 
SFYUbuP.jpg
 
Hidden Content
You'll be able to see the hidden content once you thank this post.

Molbe za moje linkove, šaljite na PP.

 

Zabranjeno je kopiranje mojih linkova,reupload i postavljanje na druge forume!


Thanked by 70 Members:
ivica gavran , Nenad71088 , goransokolovic.fr , lovaccc , vick , nsrule , vlast69 , ddpp75 , lilke , stashatomic , ivica976 , radovisanec , San Lorenzo , 8888 , milan1968 , sbozo , Edifier , predrak , papak3333 , kanalplus , hunters , Manijaci , zoki-kiza , velja_nevoljaaa , chefko , BeBoy , doomguy , milan11 , zvezdas , dejanvasiljevic76 , kusatak , Njegoš , pepe333 , zicko , Jay1972N , urbor , urs517 , Stefi_1997 , newkid , senad68 , Monolith , direhard , james12320 , mirko_cilicax , indukcia , pingeponge , gor , cigoyner , Cocco Bill , xdm , coresasa , daxdo , salabajzer , Zelenac1 , bongobuda , aca72 , lalemile , zoran48 , goraneo , kormi17 , pbmzg , kreator1973 , Jokso , zoki71 , chadjox , villi , MP22 , bgsstefan , evilwolf76 , Alamo74

#4
Psycho.Chernobyl

Psycho.Chernobyl

    Advanced Member

  • Members
  • PipPipPip
  • 266 posts
  • 4746 thanks
  • Location127.0.0.1

Partizanska eskadrila (1979) KTV REMASTERED E-AC3 x264


U proljeće 1942. godine, je nemačko vazduhoplovstvo imalo potpunu prevlast, ne samo na nebu Jugoslavije, nego i skoro nad celom Evropom. 
Partizani su u to vreme imali avione koje su kao i ostalo oružje otimali od neprijatelja. 
Ovo je film o stvaranju partizanske avijacije i njenim prvim borbama.
 
Žanr: Drama, History, War 
Režiser: Hajrudin Krvavac 
Glavne uloge: Bekim Fehmiu, Velimir 'Bata' Zivojinovic, Ljubisa Samardzic
 

Please Login or Register to see this Hidden Content

 
qag48nk73rz.png
 
Partizanska-eskadrila-1979-Ktv-Remastere
 
Hidden Content
You'll be able to see the hidden content once you thank this post.


Thanked by 10 Members:
lovaccc , ivica976 , radovisanec , 8888 , Edifier , Homme , lilke , jumanjinz , Zelenac1 , ss_semi



0 user(s) are reading this topic

0 members, 0 guests, 0 anonymous users