Jump to content

Dobrodošli na Balkandownload.org
Tražite domaće knjige, exyu magazine, sinhronizirane crtane filmove, PC i ostale igre, strane i domaće filmove, dokumentarce, stranu i domaću muziku, itd. ? Ne morate tražiti dalje jer sve ćete to naći kod nas, uredno postavljeno i spremno za download. Osim toga registracijom možete sudjelovati u raznim postojećim temama na forumu, otvarati nove teme, sudjelovati u chatu i još mnogo toga. Ako već imaš otvoren račun, logiraj se ovde ,a ako želiš saznati zašto smo najbolji otvori novi račun i uverite se sami :)
Photo

Duga mracna noc / Duga mračna noć / Long Dark Night (2005-)


5 replies to this topic

#1
tttrojannnn

tttrojannnn

    Bronze Member

  • Members
  • PipPipPipPip
  • 1,981 posts
  • 15600 thanks

Duga Mračna Noć (2004)






kEFPvP0.jpg




Dj7ndSc.jpg




Please Login or Register to see this Hidden Content




Please Login or Register to see this Hidden Content


Edited by Casino, 07 August 2016 - 13:50.


Thanked by 31 Members:
CreeP , bugsy , bmarjan , litamisi , godsmack , ivanjinjo , sasadjak , ZluNetrebalo , jakov123 , matmi , deyyy0 , Zvone 96 , silencox , micelj , Griffin , Svilesis , callipso , mkulis1899 , ante.pavelic.79 , Ivan-Stanic , pal1000 , millsqq , vjekoslavjosicvj , nesokec , mikula11 , SHOLE911 , oviraptor , igizigi , Koja1971 , sikizg , tanja032001

#2
Guest_*offline*_*

Guest_*offline*_*
  • Guests
  • thanks

Duga mracna noc 2005 DVD 1 OD 4  ep.01-03 [Perikle]

 

7mXL9cI.jpg

f1Moddv.jpg

7uRg9Go.jpg

 


Glumci
Goran Višnjić, Mustafa Nadarević, Katarina Bistrović-Darvaš, Tarik Filipović, Žarko Potočnjak, Ivo Gregurević, Goran Navojec, Vera Zima, Bernarda Oman, Krešimir Mikić, Minja Jovičić, Alen Liverić, Marija Kohn, Boris Svrtan

Početak je II. svjetskog rata na području Kraljevine Jugoslavije. Seoski mladić Ivan Kolar - Iva (Goran Višnjić) upisuje studij agronomije. Zauzimajući se za prijatelja Židova (Krešimir Mikić), koji studira medicinu, sukobi se sa fašistima i vraća se u selo gdje ga od vlasti novostvorene Nezavisne države Hrvatske spašava Mata (Goran Navojec), prijatelj iz djetinjstva koji se pridružio ustašama. Iva se pridružuje partizanima gdje upoznaje djevojku (Katarina Bistrović-Darvaš), koju oženi i dobije sina. Nakon rata, Iva spašava zarobljenog Matu od sigurne smrti, suočava sa raspadom svog partizanskog braka, samoubojstvom oca (Boris Dvornik), kojeg su zlostavljali komunisti, samoubojstvom žene te na kraju zbog suprotstavljanja novim vlastima završava na Golom otoku. Nekoliko godina kasnije, po povratku iz logora, ipak ga dočeka njegov sin za kojeg je mislio da je mrtav.

 

Format                                   : MPEG-PS
File size                                : 1 024 MiB
Duration                                 : 34mn 52s
Overall bit rate mode                    : Variable
Overall bit rate                         : 4 105 Kbps
Writing library                          : encoded by TMPGEnc 4.0 XPress Version. 4.7.6.304

Video
ID                                       : 224 (0xE0)
Format                                   : MPEG Video
Format version                           : Version 2
Format profile                           : [email protected]
Format settings, BVOP                    : Yes
Format settings, Matrix                  : Custom
Format settings, GOP                     : Variable
Format settings, picture structure       : Frame
Duration                                 : 34mn 52s
Bit rate mode                            : Variable
Bit rate                                 : 3 575 Kbps
Maximum bit rate                         : 9 200 Kbps
Width                                    : 720 pixels
Height                                   : 576 pixels
Display aspect ratio                     : 4:3
Frame rate                               : 25.000 fps
Standard                                 : PAL
Color space                              : YUV
Chroma subsampling                       : 4:2:0
Bit depth                                : 8 bits
Scan type                                : Interlaced
Scan order                               : Top Field First
Compression mode                         : Lossy
Bits/(Pixel*Frame)                       : 0.345
Time code of first frame                 : 00:00:00:00
Time code source                         : Group of pictures header
GOP, Open/Closed                         : Closed
Stream size                              : 892 MiB (87%)
Writing library                          : TMPGEnc XPress 4.7.6.304
Color primaries                          : BT.601 PAL
Transfer characteristics                 : BT.470 System B, BT.470 System G
Matrix coefficients                      : BT.601

Audio
ID                                       : 189 (0xBD)-128 (0x80)
Format                                   : AC-3
Format/Info                              : Audio Coding 3
Mode extension                           : CM (complete main)
Format settings, Endianness              : Big
Muxing mode                              : DVD-Video
Duration                                 : 34mn 42s
Bit rate mode                            : Constant
Bit rate                                 : 448 Kbps
Channel(s)                               : 6 channels
Channel positions                        : Front: L C R, Side: L R, LFE
Sampling rate                            : 48.0 KHz
Frame rate                               : 31.250 fps (1536 spf)
Compression mode                         : Lossy
Delay relative to video                  : 9s 856ms
Stream size                              : 111 MiB (11%)

 

SCREENSHOT :

 

24kydnm.jpg

 

DOWNLOAD :

 

LINKOVI SE MOGU KOMBINOVATI

 

UPLOADED :

 

Hidden Content
You'll be able to see the hidden content once you thank this post.

 

RAPIDGATOR :

 

Hidden Content
You'll be able to see the hidden content once you thank this post.

 

UPLOADROCKET :

 

Hidden Content
You'll be able to see the hidden content once you thank this post.

 

UPTOBOX :

 

Hidden Content
You'll be able to see the hidden content once you thank this post.

 

OPENLOAD :

 

Hidden Content
You'll be able to see the hidden content once you thank this post.

 

RAR PASSWORD :

 

Hidden Content
You'll be able to see the hidden content once you thank this post.


Thanked by 68 Members:
tpotocnjak , bpeters2009 , bugsy , bmarjan , iudovcev , litamisi , avail , easymaja , godsmack , Vim0 , SumyF , sasadjak , zeus0407 , matmi , deyyy0 , silencox , Zvone 96 , Svilesis , Deyyyo , komikom , MrDivix , callipso , 79693 , suten , micelj , mkulis1899 , cherso53 , Harley.Fr.Quinn , ante.pavelic.79 , tgv , Ivan-Stanic , pal1000 , brsnv , G-Zeko , _dince_ , Barbarela , taurus1 , millsqq , henmax , maki1092 , vjekoslavjosicvj , Stule , Ivan2010 , nesokec , dushkoserb , mikula11 , SHOLE911 , oviraptor , Ludisrbin , srdjandjusic , libri00 , pantisa , jimmy237 , gabrielapetkovic , Koja1971 , bumbo0123 , laslovo56 , miiakong , Ljopatar , sikizg , andromaha , ddunaj8 , tanja032001 , Zelenac1 , Fortmer , zgzman64 , Athilon , duka23

#3
Guest_*offline*_*

Guest_*offline*_*
  • Guests
  • thanks

Duga mracna noc 2005 DVD 2 OD 4  ep.04-07 [Perikle]

 

7mXL9cI.jpg

f1Moddv.jpg

7uRg9Go.jpg

 


Glumci
Goran Višnjić, Mustafa Nadarević, Katarina Bistrović-Darvaš, Tarik Filipović, Žarko Potočnjak, Ivo Gregurević, Goran Navojec, Vera Zima, Bernarda Oman, Krešimir Mikić, Minja Jovičić, Alen Liverić, Marija Kohn, Boris Svrtan

Početak je II. svjetskog rata na području Kraljevine Jugoslavije. Seoski mladić Ivan Kolar - Iva (Goran Višnjić) upisuje studij agronomije. Zauzimajući se za prijatelja Židova (Krešimir Mikić), koji studira medicinu, sukobi se sa fašistima i vraća se u selo gdje ga od vlasti novostvorene Nezavisne države Hrvatske spašava Mata (Goran Navojec), prijatelj iz djetinjstva koji se pridružio ustašama. Iva se pridružuje partizanima gdje upoznaje djevojku (Katarina Bistrović-Darvaš), koju oženi i dobije sina. Nakon rata, Iva spašava zarobljenog Matu od sigurne smrti, suočava sa raspadom svog partizanskog braka, samoubojstvom oca (Boris Dvornik), kojeg su zlostavljali komunisti, samoubojstvom žene te na kraju zbog suprotstavljanja novim vlastima završava na Golom otoku. Nekoliko godina kasnije, po povratku iz logora, ipak ga dočeka njegov sin za kojeg je mislio da je mrtav.

 

Format                                   : MPEG-PS
File size                                : 1 024 MiB
Duration                                 : 34mn 52s
Overall bit rate mode                    : Variable
Overall bit rate                         : 4 105 Kbps
Writing library                          : encoded by TMPGEnc 4.0 XPress Version. 4.7.6.304

Video
ID                                       : 224 (0xE0)
Format                                   : MPEG Video
Format version                           : Version 2
Format profile                           : [email protected]
Format settings, BVOP                    : Yes
Format settings, Matrix                  : Custom
Format settings, GOP                     : Variable
Format settings, picture structure       : Frame
Duration                                 : 34mn 52s
Bit rate mode                            : Variable
Bit rate                                 : 3 575 Kbps
Maximum bit rate                         : 9 200 Kbps
Width                                    : 720 pixels
Height                                   : 576 pixels
Display aspect ratio                     : 4:3
Frame rate                               : 25.000 fps
Standard                                 : PAL
Color space                              : YUV
Chroma subsampling                       : 4:2:0
Bit depth                                : 8 bits
Scan type                                : Interlaced
Scan order                               : Top Field First
Compression mode                         : Lossy
Bits/(Pixel*Frame)                       : 0.345
Time code of first frame                 : 00:00:00:00
Time code source                         : Group of pictures header
GOP, Open/Closed                         : Closed
Stream size                              : 892 MiB (87%)
Writing library                          : TMPGEnc XPress 4.7.6.304
Color primaries                          : BT.601 PAL
Transfer characteristics                 : BT.470 System B, BT.470 System G
Matrix coefficients                      : BT.601

Audio
ID                                       : 189 (0xBD)-128 (0x80)
Format                                   : AC-3
Format/Info                              : Audio Coding 3
Mode extension                           : CM (complete main)
Format settings, Endianness              : Big
Muxing mode                              : DVD-Video
Duration                                 : 34mn 42s
Bit rate mode                            : Constant
Bit rate                                 : 448 Kbps
Channel(s)                               : 6 channels
Channel positions                        : Front: L C R, Side: L R, LFE
Sampling rate                            : 48.0 KHz
Frame rate                               : 31.250 fps (1536 spf)
Compression mode                         : Lossy
Delay relative to video                  : 9s 856ms
Stream size                              : 111 MiB (11%)

 

SCREENSHOT :

 

9G90Yom.jpg

 

DOWNLOAD :

 

LINKOVI SE MOGU KOMBINOVATI

 

UPLOADED :

 

Hidden Content
You'll be able to see the hidden content once you thank this post.

 

RAPIDGATOR :

 

Hidden Content
You'll be able to see the hidden content once you thank this post.

 

UPLOADROCKET :

 

Hidden Content
You'll be able to see the hidden content once you thank this post.

 

UPTOBOX :

 

Hidden Content
You'll be able to see the hidden content once you thank this post.

 

OPENLOAD :

 

Hidden Content
You'll be able to see the hidden content once you thank this post.

 

RAR PASSWORD :

 

Hidden Content
You'll be able to see the hidden content once you thank this post.


Thanked by 30 Members:
litamisi , Mol25 , zeus0407 , jakov123 , Zvone 96 , micelj , Griffin , Svilesis , 10jabuka , callipso , suten , cherso53 , Ivan-Stanic , G-Zeko , _dince_ , Barbarela , millsqq , vjekoslavjosicvj , mikula11 , srdjandjusic , SHOLE911 , libri00 , jimmy237 , Koja1971 , miiakong , Ljopatar , ddunaj8 , tanja032001 , Zelenac1 , zgzman64

#4
Guest_*offline*_*

Guest_*offline*_*
  • Guests
  • thanks

Duga mracna noc 2005 DVD 3 OD 4  ep.08-11 [Perikle]

 

7mXL9cI.jpg

f1Moddv.jpg

7uRg9Go.jpg

 


Glumci
Goran Višnjić, Mustafa Nadarević, Katarina Bistrović-Darvaš, Tarik Filipović, Žarko Potočnjak, Ivo Gregurević, Goran Navojec, Vera Zima, Bernarda Oman, Krešimir Mikić, Minja Jovičić, Alen Liverić, Marija Kohn, Boris Svrtan

Početak je II. svjetskog rata na području Kraljevine Jugoslavije. Seoski mladić Ivan Kolar - Iva (Goran Višnjić) upisuje studij agronomije. Zauzimajući se za prijatelja Židova (Krešimir Mikić), koji studira medicinu, sukobi se sa fašistima i vraća se u selo gdje ga od vlasti novostvorene Nezavisne države Hrvatske spašava Mata (Goran Navojec), prijatelj iz djetinjstva koji se pridružio ustašama. Iva se pridružuje partizanima gdje upoznaje djevojku (Katarina Bistrović-Darvaš), koju oženi i dobije sina. Nakon rata, Iva spašava zarobljenog Matu od sigurne smrti, suočava sa raspadom svog partizanskog braka, samoubojstvom oca (Boris Dvornik), kojeg su zlostavljali komunisti, samoubojstvom žene te na kraju zbog suprotstavljanja novim vlastima završava na Golom otoku. Nekoliko godina kasnije, po povratku iz logora, ipak ga dočeka njegov sin za kojeg je mislio da je mrtav.

 

Format                                   : MPEG-PS
File size                                : 1 024 MiB
Duration                                 : 34mn 52s
Overall bit rate mode                    : Variable
Overall bit rate                         : 4 105 Kbps
Writing library                          : encoded by TMPGEnc 4.0 XPress Version. 4.7.6.304

Video
ID                                       : 224 (0xE0)
Format                                   : MPEG Video
Format version                           : Version 2
Format profile                           : [email protected]
Format settings, BVOP                    : Yes
Format settings, Matrix                  : Custom
Format settings, GOP                     : Variable
Format settings, picture structure       : Frame
Duration                                 : 34mn 52s
Bit rate mode                            : Variable
Bit rate                                 : 3 575 Kbps
Maximum bit rate                         : 9 200 Kbps
Width                                    : 720 pixels
Height                                   : 576 pixels
Display aspect ratio                     : 4:3
Frame rate                               : 25.000 fps
Standard                                 : PAL
Color space                              : YUV
Chroma subsampling                       : 4:2:0
Bit depth                                : 8 bits
Scan type                                : Interlaced
Scan order                               : Top Field First
Compression mode                         : Lossy
Bits/(Pixel*Frame)                       : 0.345
Time code of first frame                 : 00:00:00:00
Time code source                         : Group of pictures header
GOP, Open/Closed                         : Closed
Stream size                              : 892 MiB (87%)
Writing library                          : TMPGEnc XPress 4.7.6.304
Color primaries                          : BT.601 PAL
Transfer characteristics                 : BT.470 System B, BT.470 System G
Matrix coefficients                      : BT.601

Audio
ID                                       : 189 (0xBD)-128 (0x80)
Format                                   : AC-3
Format/Info                              : Audio Coding 3
Mode extension                           : CM (complete main)
Format settings, Endianness              : Big
Muxing mode                              : DVD-Video
Duration                                 : 34mn 42s
Bit rate mode                            : Constant
Bit rate                                 : 448 Kbps
Channel(s)                               : 6 channels
Channel positions                        : Front: L C R, Side: L R, LFE
Sampling rate                            : 48.0 KHz
Frame rate                               : 31.250 fps (1536 spf)
Compression mode                         : Lossy
Delay relative to video                  : 9s 856ms
Stream size                              : 111 MiB (11%)

 

SCREENSHOT :

 

IeXvroN.jpg

 

DOWNLOAD :

 

LINKOVI SE MOGU KOMBINOVATI

 

UPLOADED :

 

Hidden Content
You'll be able to see the hidden content once you thank this post.

 

RAPIDGATOR :

 

Hidden Content
You'll be able to see the hidden content once you thank this post.

 

UPLOADROCKET :

 

Hidden Content
You'll be able to see the hidden content once you thank this post.

 

UPTOBOX :

 

Hidden Content
You'll be able to see the hidden content once you thank this post.

 

OPENLOAD:

 

Hidden Content
You'll be able to see the hidden content once you thank this post.

 

RAR PASSWORD :

 

Hidden Content
You'll be able to see the hidden content once you thank this post.


Thanked by 29 Members:
litamisi , ikuki , ara66 , Mol25 , micelj , Griffin , Svilesis , 10jabuka , callipso , mkulis1899 , Ivan-Stanic , pal1000 , G-Zeko , _dince_ , Barbarela , millsqq , tale97 , mikula11 , srdjandjusic , sicer2005 , SHOLE911 , libri00 , Koja1971 , miiakong , Ljopatar , ddunaj8 , tanja032001 , Zelenac1 , zgzman64

#5
Guest_*offline*_*

Guest_*offline*_*
  • Guests
  • thanks

Duga mracna noc 2005 DVD 4 OD 4  ep.12-14 [Perikle]

 

7mXL9cI.jpg

f1Moddv.jpg

7uRg9Go.jpg

 

SCREENSHOT :

 

zc8q1bh.jpg

 

DOWNLOAD :

 

LINKOVI SE MOGU KOMBINOVATI

 

UPLOADED :

 

Hidden Content
You'll be able to see the hidden content once you thank this post.

 

RAPIDGATOR :

 

Hidden Content
You'll be able to see the hidden content once you thank this post.

 

UPLOADROCKET:

 

Hidden Content
You'll be able to see the hidden content once you thank this post.

 

UPTOBOX :

 

Hidden Content
You'll be able to see the hidden content once you thank this post.

 

OPENLOAD :

 

Hidden Content
You'll be able to see the hidden content once you thank this post.

 

RAR PASSWORD :

 

Hidden Content
You'll be able to see the hidden content once you thank this post.

 

KRAJ SERIJE



Thanked by 29 Members:
bugsy , litamisi , goraneo , Mol25 , zeus0407 , Zvone 96 , micelj , Svilesis , callipso , Ivan-Stanic , G-Zeko , Barbarela , millsqq , vjekoslavjosicvj , ikuki , mikula11 , SHOLE911 , libri00 , Koja1971 , pearleu , bumbo0123 , miiakong , Ljopatar , ddunaj8 , Harambaša , sbrunov2 , tanja032001 , Zelenac1 , zgzman64

#6
Sabah

Sabah

    Silver Member

  • Global moderator
  • 4,378 posts
  • 73390 thanks

Duga.Mračna.Noć.2004.DVDRip.x264-BD4YU

 

Dj7ndSc.jpg

 

qvD5sv0.jpg

 

oKGu6ak.jpg

 

czgg6Ld.jpg

 

u8PIPLg.jpg

 

SW0qkng.jpg

 

59dsLkd.jpg

 

wRX4KxI.jpg

 

NoE6gwy.jpg

 

HkH6yYA.jpg

 

lYkY0gP.jpg

 

5BLZRxT.jpg

 

H6LMY9I.jpg

 

FRn6KFw.jpg

 

1suRyZH.jpg

 

bjJCcDS.png

Hidden Content
You'll be able to see the hidden content once you thank this post.

LJx5GVx.png

Hidden Content
You'll be able to see the hidden content once you thank this post.

bHInrZr.png

Hidden Content
You'll be able to see the hidden content once you thank this post.

Ac8RiYT.png

Hidden Content
You'll be able to see the hidden content once you thank this post.

[center]LLmYmY8.png
 
Hidden Content
You'll be able to see the hidden content once you thank this post.

imdb top 250 prevod

http://www.balkandownload.org/topic/40972-imdb-250-sa-prevodima/]

Thanked by 64 Members:
tpotocnjak , batman , CreeP , bugsy , bmarjan , iudovcev , litamisi , goraneo , godsmack , Vim0 , ivanjinjo , enterhak , SumyF , Mol25 , sasadjak , zeus0407 , ZluNetrebalo , jakov123 , dil , bond631 , micelj , Griffin , Svilesis , tonitaxi , komikom , MrDivix , 10jabuka , callipso , cherso53 , daco99 , saintdumont , ss_semi , suten , mkulis1899 , Harley.Fr.Quinn , tgv , Ivan-Stanic , gorstemil , G-Zeko , _dince_ , Barbarela , taurus1 , Zelenac1 , egdraz , franco64 , vjekoslavjosicvj , Stule , Ivan2010 , nesokec , stefanovicmilan , Balthassar , dushkoserb , mikula11 , srdjandjusic , davidovich , maddex_007 , sicer2005 , nocni voz , bumbo0123 , aleksapet , zoltan , SHOLE911 , MAGICMASTER , dakle



0 user(s) are reading this topic

0 members, 0 guests, 0 anonymous users