Jump to content

Dobrodošli na Balkandownload.org
Tražite domaće knjige, exyu magazine, sinhronizirane crtane filmove, PC i ostale igre, strane i domaće filmove, dokumentarce, stranu i domaću muziku, itd. ? Ne morate tražiti dalje jer sve ćete to naći kod nas, uredno postavljeno i spremno za download. Osim toga registracijom možete sudjelovati u raznim postojećim temama na forumu, otvarati nove teme, sudjelovati u chatu i još mnogo toga. Ako već imaš otvoren račun, logiraj se ovde ,a ako želiš saznati zašto smo najbolji otvori novi račun i uverite se sami :)
Photo

Grudge Match (2013)


  • Please log in to reply
5 replies to this topic

#1
drsko

drsko

    Bronze Member

  • Banovan
  • PipPipPipPip
  • 1,332 posts
  • 1251 thanks

Grudge Match 2013 Cam XviD-FANTA

 

ij162sk2qwevl7kez9p.jpg

 

 

 

Please Login or Register to see this Hidden Content

 

Genre: Comedy | Sport
IMDB Rating: 7.1/10 from 2,326 users Metascore: 35/100
Directed by: Peter Segal
Starring: Robert De Niro, Sylvester Stallone, Kim Basinger

Release Name: Grudge.Match.2013.Cam.XviD-FANTA
Size: 884 MB
Video: AVi | 720×388 | 960Kbps
Audio: English | AC3 | 192Kbps
Runtime: 1h 44 mins

 

 

 

fgnuhf4bl7p71kvkdzl.jpeg

 

 

 

Hidden Content
You'll be able to see the hidden content once you thank this post.


Posted Image

#2
drsko

drsko

    Bronze Member

  • Banovan
  • PipPipPipPip
  • 1,332 posts
  • 1251 thanks

Grudge.Match.2013.R6.DVDSCR.XViD-FANTA

 

 

 

4ox1rasba53mdlrfqud2.jpg

 

 

Please Login or Register to see this Hidden Content

 

 

Genre: Comedy | Sport
IMDB Rating: 7.0/10 from 2,568 users Metascore: 35/100
Directed by: Peter Segal
Starring: Robert De Niro, Sylvester Stallone, Kim Basinger

Release Name: Grudge.Match.2013.R6.DVDSCR.XViD-FANTA
Size: 2.16 GB
Video: AVi | 1280×720 | 2522 Kbps
Audio: English | AC3 | 192Kbps
Runtime: 1h 53mn

 

 

tyklzqymp6lpdaxh5ds.png

 

Hidden Content
You'll be able to see the hidden content once you thank this post.


Posted Image

#3
biliana

biliana

    Newbie

  • Members
  • Pip
  • 32 posts
  • 3 thanks

Hi there, I tried to download single links and they are not working, then I tried on kingfiles and when I was extracting them third file is broken! Is it possible and if it is not to much to ask if you can repost those links again? Thank you    My Regards 



#4
Madball

Madball

    Bronze Member

  • Members
  • PipPipPipPip
  • 2,008 posts
  • 4222 thanks

Grudge Match (2013) HDRip XviD AC3-RARBG

8vg5.jpg

Please Login or Register to see this Hidden Content



Info:
Format                                   : AVI
Format/Info                              : Audio Video Interleave
Format profile                           : OpenDML
File size                                : 1.42 GiB
Duration                                 : 1h 53mn
Overall bit rate                         : 1 803 Kbps
Writing application                      : Lavf55.22.103


Video
ID                                       : 0
Format                                   : xvid
Codec ID                                 : xvid
Duration                                 : 1h 53mn
Bit rate                                 : 1 599 Kbps
Width                                    : 720 pixels
Height                                   : 402 pixels
Display aspect ratio                     : 16:9
Frame rate                               : 23.976 fps
Bits/(Pixel*Frame)                       : 0.230
Stream size                              : 1.26 GiB (89%)

Audio
ID                                       : 1
Format                                   : AC-3
Format/Info                              : Audio Coding 3
Mode extension                           : CM (complete main)
Format settings, Endianness              : Big
Codec ID                                 : 2000
Duration                                 : 1h 53mn
Bit rate mode                            : Constant
Bit rate                                 : 192 Kbps
Channel(s)                               : 2 channels
Channel positions                        : Front: L R
Sampling rate                            : 48.0 KHz
Bit depth                                : 16 bits
Compression mode                         : Lossy
Stream size                              : 155 MiB (11%)
Alignment                                : Aligned on interleaves
Interleave, duration                     : 32 ms (0.77 video frame)




lfpj.jpg

Hidden Content
You'll be able to see the hidden content once you thank this post.

image.gif


Thanked by 1 Member:
ogdm34

#5
Tobacco Road

Tobacco Road

    The Warez GOD

  • Tobacco
  • PipPipPipPipPipPipPipPipPipPip
  • 17,649 posts
  • 126804 thanks
  • Locationscrls

Grudge Match (2013) BDRip x264-ALLiANCE

 

 

TprY3.jpg

 

 

Please Login or Register to see this Hidden Content

 

 

 

 

Source: Bluray
Size:  1 GB
Genre:  Drama | Sports
Video: MKV | 720×406
Audio: English | AAC
 
 
y80763w23o6f0xbhhq5.jpg
 
 
Download
Hidden Content
You'll be able to see the hidden content once you thank this post.


Kako skinuti nesto sa Balkandownload-a?

 

 

http://www.slideshare.net/bd4yu/kako-skidati-fajlove-sa-balkan-download-a

 

 

Kako da pronadjete zeljeni sadrzaj na forumu? 

 

 

http://www.balkandownload.org/topic/40428-kako-pronaci-zeljeni-sadrzaj-na-forumu/

 

Najmračniji krugovi pakla su rezervisani za one koji u vremenima moralne krize ostanu neutralni i suzdržani -Dante Alighieri


Thanked by 1 Member:
ogdm34

#6
Madball

Madball

    Bronze Member

  • Members
  • PipPipPipPip
  • 2,008 posts
  • 4222 thanks

Grudge Match  (2013)  BRRip XViD-juggs[ETRG]

grudge-match.jpg

Please Login or Register to see this Hidden Content



grudge-match2013brrip-xv.jpg

uploaded.jpg
Hidden Content
You'll be able to see the hidden content once you thank this post.


uploadrocket.jpg
Hidden Content
You'll be able to see the hidden content once you thank this post.


1.gif
Hidden Content
You'll be able to see the hidden content once you thank this post.

image.gif


Thanked by 1 Member:
ogdm34



0 user(s) are reading this topic

0 members, 0 guests, 0 anonymous users