Jump to content

Dobrodošli na Balkandownload.org
Tražite domaće knjige, exyu magazine, sinhronizirane crtane filmove, PC i ostale igre, strane i domaće filmove, dokumentarce, stranu i domaću muziku, itd. ? Ne morate tražiti dalje jer sve ćete to naći kod nas, uredno postavljeno i spremno za download. Osim toga registracijom možete sudjelovati u raznim postojećim temama na forumu, otvarati nove teme, sudjelovati u chatu i još mnogo toga. Ako već imaš otvoren račun, logiraj se ovde ,a ako želiš saznati zašto smo najbolji otvori novi račun i uverite se sami :)
Photo

Vlak u snijegu (1976)


2 replies to this topic

#1
MaliGrizeBeton

MaliGrizeBeton

    Silver Member

  • Members
  • PipPipPipPipPip
  • 2,524 posts
  • 22659 thanks

Vlak u snijegu (1976)



Thanked by 333 Members:

#2
Wolf 13

Wolf 13

    Advanced Member

  • Members
  • PipPipPip
  • 426 posts
  • 33720 thanks
Vlak u snijegu (1976) DVDrip E-AC3 x264 by Wolf
(MKV)
 
IHmRU4c.jpg
 

Please Login or Register to see this Hidden Content

 

General
Unique ID                   : 319451798748764755435892216968753866696 (0xF0542DB22AB9C0093DC23B53F9F267C8)
Complete name               : Vlak u snijegu (1976) DVDrip E-AC3 x264 by Wolf.mkv
Format                      : Matroska
Format version              : Version 4 / Version 2
File size                   : 1 001 MiB
Duration                    : 1 h 19 min
Overall bit rate            : 1 756 kb/s
Encoded date                : UTC 2018-12-01 12:07:19 / UTC 2018-12-01T09:44:32Z
Writing application         : mkvmerge v28.2.0 ('The Awakening') 64-bit
Writing library             : libebml v1.3.6 + libmatroska v1.4.9 / Lavf57.7.2
 
Video
ID                          : 1
Format                      : AVC
Format/Info                 : Advanced Video Codec
Format profile              : [email protected]
Format settings             : CABAC / 8 Ref Frames
Format settings, CABAC      : Yes
Format settings, ReFrames   : 8 frames
Codec ID                    : V_MPEG4/ISO/AVC
Duration                    : 1 h 19 min
Bit rate                    : 1 500 kb/s
Width                       : 698 pixels
Height                      : 504 pixels
Display aspect ratio        : 16:9
Original display aspect rat : 3:2
Frame rate mode             : Constant
Frame rate                  : 25.000 FPS
Color space                 : YUV
Chroma subsampling          : 4:2:0
Bit depth                   : 8 bits
Scan type                   : Progressive
Bits/(Pixel*Frame)          : 0.171
Stream size                 : 835 MiB (83%)
Title                       : Vlak u snijegu (1976)
Writing library             : x264 core 155 r2901 7d0ff22
Encoding settings           : cabac=1 / ref=8 / deblock=1:-1:-1 / analyse=0x3:0x133 / me=umh / subme=9 / psy=1 / psy_rd=1.00:0.15 / mixed_ref=1 / me_range=16 / chroma_me=1 / trellis=2 / 8x8dct=1 / cqm=0 / deadzone=21,11 / fast_pskip=1 / chroma_qp_offset=-3 / threads=6 / lookahead_threads=1 / sliced_threads=0 / nr=0 / decimate=1 / interlaced=0 / bluray_compat=0 / constrained_intra=0 / bframes=3 / b_pyramid=2 / b_adapt=2 / b_bias=0 / direct=3 / weightb=1 / open_gop=0 / weightp=2 / keyint=250 / keyint_min=25 / scenecut=40 / intra_refresh=0 / rc_lookahead=60 / rc=2pass / mbtree=1 / bitrate=1500 / ratetol=1.0 / qcomp=0.60 / qpmin=0 / qpmax=69 / qpstep=4 / cplxblur=20.0 / qblur=0.5 / vbv_maxrate=300000 / vbv_bufsize=300000 / nal_hrd=none / filler=0 / ip_ratio=1.40 / aq=1:1.00
Language                    : Croatian
Default                     : Yes
Forced                      : No
Color range                 : Limited
Color primaries             : BT.601 PAL
Transfer characteristics    : BT.709
Matrix coefficients         : BT.601
Statistics Tags Issue       : mkvmerge v28.2.0 ('The Awakening') 64-bit 2018-12-01 12:07:19 / mkvmerge v28.2.0 ('The Awakening') 64-bit 2018-12-01 12:07:19 / UTC 2018-12-01T09:44:32Z
FromStats_BitRate           : 1499786
FromStats_Duration          : 01:19:36.000000000
FromStats_FrameCount        : 119400
FromStats_StreamSize        : 895372252
 
Audio
ID                          : 2
Format                      : E-AC-3
Format/Info                 : Enhanced Audio Coding 3
Codec ID                    : A_EAC3
Duration                    : 1 h 19 min
Bit rate mode               : Constant
Bit rate                    : 256 kb/s
Channel(s)                  : 6 channels
Channel positions           : Front: L C R, Side: L R, LFE
Sampling rate               : 48.0 kHz
Frame rate                  : 187.500 FPS (256 SPF)
Compression mode            : Lossy
Delay relative to video     : -5 ms
Stream size                 : 146 MiB (15%)
Title                       : Vlak u snijegu (1976)
Language                    : Croatian
Service kind                : Complete Main
Default                     : Yes
Forced                      : No
Statistics Tags Issue       : mkvmerge v28.2.0 ('The Awakening') 64-bit 2018-12-01 12:07:19 / mkvmerge v28.2.0 ('The Awakening') 64-bit 2018-12-01 12:07:19 / UTC 2018-12-01T09:44:32Z
FromStats_BitRate           : 256000
FromStats_Duration          : 01:19:40.544000000
FromStats_FrameCount        : 149392
FromStats_StreamSize        : 152977408
 
epYscVA.png
Hidden Content
You'll be able to see the hidden content once you thank this post.
 
6ROfiJD.png
zWCPHow.jpg

Edited by Wolf 13, 01 December 2018 - 15:04.


Thanked by 149 Members:

#3
Zoran_

Zoran_

    Gold Member

  • VIP
  • PipPipPipPipPipPip
  • 6,008 posts
  • 150263 thanks
Vlak u snijegu (1976) 
 
 
d0xWi2x.png
 
Su6Ksi6.jpg
 

Please Login or Register to see this Hidden Content

 
Film Vlak u snijegu, kao i roman Mate Lovraka prema kojem je nastao, još je uvijek jednako popularan danas kao i 1976 kada je snimljen. Učenike jedne seoske škole učitelj povede vlakom na izlet u grad. Međutim, učitelj se u gradu razboli i ostaje u bolnici, a djeca se moraju sama vratiti. Na povratku ih zatekne zimsko nevrijeme i vlak stane pred snježnim nanosom. Zahvaljujući pomoću djece, željezničari oslobađaju vlak.
 
flj90kvg5v9.png
 
wtRx1sW.gif
 
vAMs03l.jpg
 
Oets6ur.gif
 
Vlak u snijegu (1976) DVDRip.x264.mkv
 
SFYUbuP.jpg
 
Hidden Content
You'll be able to see the hidden content once you thank this post.

Molbe za moje linkove, šaljite na PP.

 

Zabranjeno je kopiranje mojih linkova,reupload i postavljanje na druge forume!


Thanked by 61 Members:
siram , i_separovic , mika_vk , 16pilica , Feebo , pepe333 , davor42 , drobe2011 , 10042013 , Petard32 , toby007 , art321 , boris3004 , benopunk , kamelijera , Bniux , osinium , zvukovoj , Gale92 , vartex , AsheFawkes , ddpp75 , arkica , dedamiro , neo101m , Ikapec , djuradj86 , ninogal , hdevic , radegeddon , kixon , kockari , bozovaricak , goraneo , zecozeco , Edifier , chirano1 , gigahr , asisin , morse , vkatavic , bugsy , Zelenac1 , dvojica , balkankankan , dodge , toco222 , epikur69 , opetopet , mizimojzi , burgo , blauer , beograd1960' , balkanmmb , matematic , Jokso , Manipe , GORANJ79 , narcis33 , gbarac , bubimiri



0 user(s) are reading this topic

0 members, 0 guests, 0 anonymous users