Jump to content

Dobrodošli na Balkandownload.org
Tražite domaće knjige, exyu magazine, sinhronizirane crtane filmove, PC i ostale igre, strane i domaće filmove, dokumentarce, stranu i domaću muziku, itd. ? Ne morate tražiti dalje jer sve ćete to naći kod nas, uredno postavljeno i spremno za download. Osim toga registracijom možete sudjelovati u raznim postojećim temama na forumu, otvarati nove teme, sudjelovati u chatu i još mnogo toga. Ako već imaš otvoren račun, logiraj se ovde ,a ako želiš saznati zašto smo najbolji otvori novi račun i uverite se sami :)
Photo

Dead of the Nite (2013)


  • Please log in to reply
1 reply to this topic

#1
BD Tech Admin

BD Tech Admin

    Advanced Member

  • Members
  • PipPipPip
  • 495 posts
  • 3403 thanks
Dead of the Nite (2013) HDRiP XViD-FiRE
 
 
lu71f.png
 
 
 

Please Login or Register to see this Hidden Content

 
 
Source: Bluray
Size: 700 MB
Genre: Horror
Video: x264, 720×400 at 925kb/s
Audio: English, MP3 at 128kb/s
Subs: English
IMDB Rating: 6.1/10 from 33 users
RT Critics: No Reviews Yet…
Directed By: S.J. Evans
Starring: Tony Todd, Joseph Millson, Cicely Tennant
 
When a group of ghost hunters investigate the infamous Jericho Manor, they soon realise it\’s not just ghosts that go bump in the night! As people get murdered, the survivors need to discover who or what\’s killing them before it’s too late.
 
6yl5bq9270173nhga0.jpg
 
 
 
Hidden Content
You'll be able to see the hidden content once you thank this post.


#2
Madball

Madball

    Bronze Member

  • Members
  • PipPipPipPip
  • 2,008 posts
  • 4221 thanks

Dead of the Nite (2013) HDRiP XViD-FiRE

fkcf.jpg
 

Please Login or Register to see this Hidden Content



Dead.of.the.Nite.2013.HDRiP.XViD-FiRE

**********************************************************************************

Format                                   : AVI
Format/Info                              : Audio Video Interleave
File size                                : 698 MiB
Duration                                 : 1h 29mn
Overall bit rate                         : 1 092 Kbps
Writing application                      : VirtualDubMod 1.5.10.2
Writing library                          : VirtualDubMod build 2542/release

**********************************************************************************

Video

ID                                       : 0
Format                                   : MPEG-4 Visual
Format profile                           : Advanced [email protected]
Format settings, BVOP                    : 2
Format settings, QPel                    : No
Format settings, GMC                     : No warppoints
Format settings, Matrix                  : Custom
Muxing mode                              : Packed bitstream
Codec ID                                 : XVID
Codec ID/Hint                            : XviD
Duration                                 : 1h 29mn
Bit rate                                 : 955 Kbps
Width                                    : 720 pixels
Height                                   : 400 pixels
Display aspect ratio                     : 16:9
Frame rate                               : 24.000 fps
Color space                              : YUV
Chroma subsampling                       : 4:2:0
Bit depth                                : 8 bits
Scan type                                : Progressive
Compression mode                         : Lossy
Bits/(Pixel*Frame)                       : 0.138
Stream size                              : 611 MiB (87%)
Writing library                          : XviD 58

**********************************************************************************

Audio

ID                                       : 1
Format                                   : MPEG Audio
Format version                           : Version 1
Format profile                           : Layer 3
Mode                                     : Joint stereo
Mode extension                           : MS Stereo
Codec ID                                 : 55
Codec ID/Hint                            : MP3
Duration                                 : 1h 29mn
Bit rate mode                            : Constant
Bit rate                                 : 128 Kbps
Channel(s)                               : 2 channels
Sampling rate                            : 48.0 KHz
Compression mode                         : Lossy
Stream size                              : 81.9 MiB (12%)
Alignment                                : Aligned on interleaves
Interleave, duration                     : 42 ms (1.00 video frame)
Interleave, preload duration             : 504 ms
Writing library                          : LAME3.97
Encoding settings                        : -m j -V 4 -q 2 -lowpass 17 -b 128
Source                                   : WEB-DL

**********************************************************************************

Genre

Horror   

Actors

Tony Todd, Joseph Millson, Cicely Tennant  

Plot

When a group of ghost hunters investigate the infamous Jericho Manor, they soon realise it's not just ghosts that go bump in the night! As people get murdered, the survivors need to discover who or what's killing them before it's too late.



8REdK.jpg
 
9ikYu.jpg
 
3ORgn.jpg
 
lqCei.jpg    

Hidden Content
You'll be able to see the hidden content once you thank this post.


Edited by Madball, 01 February 2014 - 00:57.

image.gif





0 user(s) are reading this topic

0 members, 0 guests, 0 anonymous users