Jump to content

Dobrodošli na Balkandownload.org
Tražite domaće knjige, exyu magazine, sinhronizirane crtane filmove, PC i ostale igre, strane i domaće filmove, dokumentarce, stranu i domaću muziku, itd. ? Ne morate tražiti dalje jer sve ćete to naći kod nas, uredno postavljeno i spremno za download. Osim toga registracijom možete sudjelovati u raznim postojećim temama na forumu, otvarati nove teme, sudjelovati u chatu i još mnogo toga. Ako već imaš otvoren račun, logiraj se ovde ,a ako želiš saznati zašto smo najbolji otvori novi račun i uverite se sami :)
Photo

The Monkey's Paw (2013)


  • Please log in to reply
No replies to this topic

#1
Madball

Madball

    Bronze Member

  • Members
  • PipPipPipPip
  • 2,008 posts
  • 4220 thanks

The Monkey's Paw (2013) UNRATED HDRiP XViD AC3-FiRE

7bhu.jpg
 

Please Login or Register to see this Hidden Content



The.Monkey's.Paw.2013.UNRATED.HDRiP.XViD.AC3-FiRE

**********************************************************************************

Format                                   : AVI
Format/Info                              : Audio Video Interleave
File size                                : 1.36 GiB
Duration                                 : 1h 28mn
Overall bit rate                         : 2 203 Kbps
Writing application                      : VirtualDubMod 1.5.10.2
Writing library                          : VirtualDubMod build 2542/release

**********************************************************************************

Video

ID                                       : 0
Format                                   : MPEG-4 Visual
Format profile                           : Advanced [email protected]
Format settings, BVOP                    : 2
Format settings, QPel                    : No
Format settings, GMC                     : No warppoints
Format settings, Matrix                  : Default (MPEG)
Muxing mode                              : Packed bitstream
Codec ID                                 : XVID
Codec ID/Hint                            : XviD
Duration                                 : 1h 28mn
Bit rate                                 : 1 810 Kbps
Width                                    : 720 pixels
Height                                   : 400 pixels
Display aspect ratio                     : 16:9
Frame rate                               : 23.976 fps
Color space                              : YUV
Chroma subsampling                       : 4:2:0
Bit depth                                : 8 bits
Scan type                                : Progressive
Compression mode                         : Lossy
Bits/(Pixel*Frame)                       : 0.262
Stream size                              : 1.12 GiB (82%)
Writing library                          : XviD 58

**********************************************************************************

Audio

ID                                       : 1
Format                                   : AC-3
Format/Info                              : Audio Coding 3
Mode extension                           : CM (complete main)
Format settings, Endianness              : Big
Codec ID                                 : 2000
Duration                                 : 1h 56mn
Bit rate mode                            : Constant
Bit rate                                 : 192 Kbps
Channel(s)                               : 6 channels
Channel positions                        : Front: L C R, Side: L R, LFE
Sampling rate                            : 48.0 KHz
Bit depth                                : 16 bits
Compression mode                         : Lossy
Stream size                              : 243 MiB (17%)
Alignment                                : Split accross interleaves
Interleave, duration                     : 42 ms (1.00 video frame)
Interleave, preload duration             : 500 ms
Source                                   : iTUNES

**********************************************************************************

Genre

Horror | Thriller  

Actors

C.J. Thomason, Stephen Lang, Michelle Pierce
 
Plot

Jake is given a monkey's paw that grants three wishes. After the first two wishes
leave his friend Cobb undead, Cobb pushes Jake to make a final wish.



cw7n.jpg

Hidden Content
You'll be able to see the hidden content once you thank this post.


image.gif





0 user(s) are reading this topic

0 members, 0 guests, 0 anonymous users