Jump to content

Dobrodošli na Balkandownload.org
Tražite domaće knjige, exyu magazine, sinhronizirane crtane filmove, PC i ostale igre, strane i domaće filmove, dokumentarce, stranu i domaću muziku, itd. ? Ne morate tražiti dalje jer sve ćete to naći kod nas, uredno postavljeno i spremno za download. Osim toga registracijom možete sudjelovati u raznim postojećim temama na forumu, otvarati nove teme, sudjelovati u chatu i još mnogo toga. Ako već imaš otvoren račun, logiraj se ovde ,a ako želiš saznati zašto smo najbolji otvori novi račun i uverite se sami :)
Photo

Afternoon Delight (2013)


  • Please log in to reply
No replies to this topic

#1
Madball

Madball

    Bronze Member

  • Members
  • PipPipPipPip
  • 2,008 posts
  • 4232 thanks

Afternoon Delight (2013) HDRip XviD MP3-RARBG

gsgz.jpg

Please Login or Register to see this Hidden Content



03yk.jpg
ipli.jpg
lo5h.png

Info:
Format                                   : AVI
Format/Info                              : Audio Video Interleave
File size                                : 888 MiB
Duration                                 : 1h 37mn
Overall bit rate                         : 1 269 Kbps
Movie name                               : Downloaded from RARBG.COM
Writing application                      : Lavf55.22.103
Comment                                  : Downloaded from RARBG.COM

Video
ID                                       : 0
Format                                   : xvid
Codec ID                                 : xvid
Duration                                 : 1h 37mn
Bit rate                                 : 1 000 Kbps
Width                                    : 720 pixels
Height                                   : 389 pixels
Display aspect ratio                     : 1.85:1
Frame rate                               : 23.976 fps
Bits/(Pixel*Frame)                       : 0.149
Stream size                              : 700 MiB (79%)

Audio
ID                                       : 1
Format                                   : MPEG Audio
Format version                           : Version 1
Format profile                           : Layer 3
Mode                                     : Joint stereo
Mode extension                           : MS Stereo
Codec ID                                 : 55
Codec ID/Hint                            : MP3
Duration                                 : 1h 37mn
Bit rate mode                            : Constant
Bit rate                                 : 256 Kbps
Channel(s)                               : 2 channels
Sampling rate                            : 48.0 KHz
Compression mode                         : Lossy
Stream size                              : 179 MiB (20%)
Alignment                                : Aligned on interleaves
Interleave, duration                     : 24 ms (0.58 video frame)



Hidden Content
You'll be able to see the hidden content once you thank this post.

image.gif





0 user(s) are reading this topic

0 members, 0 guests, 0 anonymous users