Jump to content

Dobrodošli na Balkandownload.org
Tražite domaće knjige, exyu magazine, sinhronizirane crtane filmove, PC i ostale igre, strane i domaće filmove, dokumentarce, stranu i domaću muziku, itd. ? Ne morate tražiti dalje jer sve ćete to naći kod nas, uredno postavljeno i spremno za download. Osim toga registracijom možete sudjelovati u raznim postojećim temama na forumu, otvarati nove teme, sudjelovati u chatu i još mnogo toga. Ako već imaš otvoren račun, logiraj se ovde ,a ako želiš saznati zašto smo najbolji otvori novi račun i uverite se sami :)
Photo

The Best Man Holiday (2013)


  • Please log in to reply
No replies to this topic

#1
Madball

Madball

    Bronze Member

  • Members
  • PipPipPipPip
  • 2,008 posts
  • 4158 thanks

The Best Man Holiday (2013) BRRip XviD MP3-RARBG

pmby.jpg

Please Login or Register to see this Hidden Content



Info:
Format                                   : AVI
Format/Info                              : Audio Video Interleave
Format profile                           : OpenDML
File size                                : 1.09 GiB
Duration                                 : 2h 3mn
Overall bit rate                         : 1 272 Kbps
Movie name                               : Downloaded from RARBG.COM
Writing application                      : Lavf55.22.103
Comment                                  : Downloaded from RARBG.COM

Video
ID                                       : 0
Format                                   : xvid
Codec ID                                 : xvid
Duration                                 : 2h 3mn
Bit rate                                 : 1 000 Kbps
Width                                    : 720 pixels
Height                                   : 299 pixels
Display aspect ratio                     : 2.40:1
Frame rate                               : 23.976 fps
Bits/(Pixel*Frame)                       : 0.194
Stream size                              : 881 MiB (79%)

Audio
ID                                       : 1
Format                                   : MPEG Audio
Format version                           : Version 1
Format profile                           : Layer 3
Mode                                     : Joint stereo
Codec ID                                 : 55
Codec ID/Hint                            : MP3
Duration                                 : 2h 3mn
Bit rate mode                            : Constant
Bit rate                                 : 256 Kbps
Channel(s)                               : 2 channels
Sampling rate                            : 48.0 KHz
Compression mode                         : Lossy
Stream size                              : 225 MiB (20%)
Alignment                                : Aligned on interleaves
Interleave, duration                     : 24 ms (0.58 video frame)



wgau.jpg
visv.jpg
48wa.jpg
Hidden Content
You'll be able to see the hidden content once you thank this post.

image.gif





0 user(s) are reading this topic

0 members, 0 guests, 0 anonymous users